<?xml version="1.0" standalone="no"?>
<!DOCTYPE svg PUBLIC "-//W3C//DTD SVG 1.1//EN" "http://www.w3.org/Graphics/SVG/1.1/DTD/svg11.dtd" >
<svg xmlns="http://www.w3.org/2000/svg">
<metadata></metadata>
<defs>
<font id="titilliumtext25l250_wt" horiz-adv-x="1085" >
<font-face units-per-em="2048" ascent="1536" descent="-512" />
<missing-glyph horiz-adv-x="481" />
<glyph horiz-adv-x="2048" />
<glyph horiz-adv-x="2048" />
<glyph unicode="&#xd;" horiz-adv-x="2048" />
<glyph unicode=" "  horiz-adv-x="481" />
<glyph unicode="&#x09;" horiz-adv-x="481" />
<glyph unicode="&#xa0;" horiz-adv-x="481" />
<glyph unicode="!" d="M485 0v207h136v-207h-136zM487 1432h131l-4 -971h-122z" />
<glyph unicode="&#x22;" horiz-adv-x="612" d="M94 995v435h119l-2 -435h-117zM395 1430h121l-2 -435h-117z" />
<glyph unicode="#" d="M20 377v106h234v402h-234v106h234v375h115v-375h342v375h114v-375h234v-106h-234v-402h234v-106h-234v-377h-114v377h-342v-377h-115v377h-234zM369 483h342v402h-342v-402z" />
<glyph unicode="$" d="M113 1036q0 361 442 361q31 0 47 -2l31 227h92l-31 -233q57 -4 121 -11.5t99 -12.5l36 -5l-10 -113q-139 19 -260 29l-68 -520q100 -21 163.5 -45.5t113 -65t71 -101t21.5 -147.5q0 -218 -110 -315.5t-322 -97.5h-35l-31 -236q-92 6 -92 14l29 228q-62 4 -134.5 12.5 t-114.5 14.5l-42 6l12 110q158 -21 293 -29l72 551q-84 17 -140.5 34t-108 46t-81 68t-46.5 97t-17 136zM238 1040q0 -68 15.5 -112.5t53.5 -74t86 -46t129 -33.5l66 508h-33q-157 0 -237 -58.5t-80 -183.5zM528 100h19q157 0 233 69t76 224q0 111 -57 161.5t-201 82.5z" />
<glyph unicode="%" d="M45 1159q0 143 55 211t172 68q116 0 171 -68.5t55 -212.5q0 -287 -226 -287q-115 0 -171 71.5t-56 217.5zM150 1159q0 -102 26.5 -150t95.5 -48t96 47t27 149q0 100 -27 145.5t-96 45.5t-95.5 -45t-26.5 -144zM297 39l438 1393l88 -35l-436 -1393zM618 289 q0 143 55.5 210.5t172.5 67.5q116 0 171.5 -68t55.5 -212q0 -287 -227 -287q-228 0 -228 289zM723 289q0 -101 27 -150t96 -49t96 48t27 149t-26.5 145.5t-96.5 44.5q-68 0 -95.5 -44.5t-27.5 -143.5z" />
<glyph unicode="&#x26;" horiz-adv-x="1433" d="M104 420q0 173 77.5 265t244.5 149q-65 75 -84.5 135.5t-19.5 156.5q0 140 89 223t251 83q171 0 255 -83t84 -231q0 -144 -73.5 -228t-247.5 -157l328 -325q41 132 59 284l121 -2q-29 -218 -86 -364l272 -265l-78 -86l-254 246q-83 -130 -192.5 -189t-267.5 -59 q-250 0 -364 114.5t-114 332.5zM229 422q0 -164 86 -248t271 -84q126 0 213 50t151 163l-442 445q-151 -45 -215 -117.5t-64 -208.5zM444 1116q0 -146 93 -239l63 -64q155 61 216 123.5t61 175.5q0 101 -51.5 153t-163.5 52q-106 0 -162 -50.5t-56 -150.5z" />
<glyph unicode="'" horiz-adv-x="204" d="M35 1425h129l-10 -450h-115z" />
<glyph unicode="(" horiz-adv-x="532" d="M88 616q0 115 20.5 252t50 250.5t58.5 210.5t49 152l21 55h129q-8 -22 -21 -60t-46.5 -151t-59.5 -219.5t-47 -244t-21 -245.5q0 -107 20 -236t48.5 -237t57.5 -200.5t49 -145.5l20 -53h-129q-8 19 -21.5 52.5t-48 135.5t-60.5 201t-47.5 233.5t-21.5 249.5z" />
<glyph unicode=")" horiz-adv-x="532" d="M88 -256q8 21 21 57.5t46.5 145.5t59.5 212.5t47 237t21 240.5q0 108 -20 240.5t-48.5 244.5t-57.5 208t-49 151l-20 55h129q8 -20 21.5 -55.5t48 -142t60.5 -209.5t47.5 -240t21.5 -252t-20.5 -249t-50 -243.5t-58.5 -203t-49 -145.5l-21 -52h-129z" />
<glyph unicode="*" d="M262 938l223 162l-219 162l53 73l220 -159l86 258l88 -29l-84 -262h270v-90h-274l84 -260l-86 -27l-86 262l-222 -162z" />
<glyph unicode="+" horiz-adv-x="901" d="M-68 477v115h453v452h119v-452h457v-115h-457v-457h-119v457h-453z" />
<glyph unicode="," horiz-adv-x="348" d="M70 -252l90 455h135l-109 -455h-116z" />
<glyph unicode="-" horiz-adv-x="901" d="M127 516v119h645v-119h-645z" />
<glyph unicode="." horiz-adv-x="507" d="M174 0v207h135v-207h-135z" />
<glyph unicode="/" d="M197 29l569 1417l117 -43l-572 -1417z" />
<glyph unicode="0" d="M55 651q0 168 21.5 292.5t61 206t101 131.5t134.5 70.5t168 20.5q98 0 171 -20.5t134 -70t99.5 -131.5t59.5 -206.5t21 -292.5q0 -191 -32.5 -323t-97 -207.5t-150 -108t-203.5 -32.5q-95 0 -167.5 19.5t-134.5 66t-102 122.5t-62 192t-22 271zM190 649q0 -132 15.5 -228 t43.5 -158t73 -98.5t97.5 -50.5t123.5 -14q89 0 150.5 24t108.5 84t69 169.5t22 273.5q0 178 -20.5 295t-65.5 185t-108 95t-158 27q-74 0 -127.5 -16.5t-97.5 -57t-71 -109t-41 -173t-14 -248.5z" />
<glyph unicode="1" d="M152 1069l423 283h121v-1352h-125v1208l-360 -239z" />
<glyph unicode="2" d="M119 0v117l420 436q60 62 91 96t72 85.5t60.5 89t34 85.5t14.5 97q0 133 -76.5 189t-236.5 56q-68 0 -156.5 -12.5t-143.5 -24.5l-55 -12l-12 117q22 6 60 15t140.5 23.5t186.5 14.5q214 0 319 -84t105 -272q0 -74 -16 -136t-54.5 -123.5t-83 -113.5t-118.5 -127 l-381 -395h692v-121h-862z" />
<glyph unicode="3" d="M102 27l17 116q219 -43 420 -43q161 1 238 70t77 205q0 76 -23 129t-66 82.5t-93.5 43t-116.5 15.5h-274v117h272q41 0 86 17t85.5 47.5t66.5 80.5t26 109q0 128 -68 181.5t-227 53.5q-84 0 -179 -9.5t-147 -19.5l-53 -10l-16 113q204 47 399 47q229 0 325.5 -82 t96.5 -264q0 -54 -14.5 -100.5t-34 -76t-48.5 -55.5t-48 -37t-43 -23l-25 -13q61 -20 101 -41.5t76.5 -59t54.5 -97t18 -142.5q0 -202 -106.5 -301.5t-329.5 -99.5q-96 0 -207.5 12t-175.5 24z" />
<glyph unicode="4" d="M61 266v105l400 981h137l-391 -965h532v438h127v-438h181v-121h-181v-272h-127v272h-678z" />
<glyph unicode="5" d="M106 37l17 115q236 -50 420 -50q149 0 236 89t87 253q0 285 -309 285q-75 0 -157 -23t-126 -46l-45 -23l-106 18l39 697h778v-121h-661l-37 -471q19 10 50.5 24.5t117.5 39t157 24.5q208 0 319 -94t111 -305q0 -229 -117.5 -347t-332.5 -118q-91 0 -201.5 13t-175.5 27z " />
<glyph unicode="6" d="M74 684q0 354 135.5 521t382.5 167q76 0 166.5 -6.5t143.5 -13.5l52 -6l-12 -117q-178 24 -350 24q-186 0 -286 -127.5t-101 -371.5l21 8q22 9 60 21.5t82.5 25.5t98 22t98.5 9q451 0 451 -414q0 -213 -121.5 -329.5t-347.5 -116.5q-473 0 -473 704zM203 639 q2 -120 21 -215.5t59 -170t107 -115t157 -40.5q165 0 251.5 83.5t86.5 244.5q0 150 -85.5 223.5t-242.5 73.5q-76 -3 -164.5 -24t-138.5 -41z" />
<glyph unicode="7" d="M115 1231v121h833v-181l-532 -1194l-119 39l520 1168v47h-702z" />
<glyph unicode="8" d="M45 344q0 79 17.5 137.5t54.5 100.5t76.5 69t101.5 58q-118 53 -172.5 124t-54.5 195q0 171 127 257.5t354 86.5t357 -86.5t130 -259.5q0 -128 -57 -198t-188 -119q63 -24 108 -51t82.5 -66.5t56.5 -95.5t19 -129q0 -387 -508 -387q-85 0 -156.5 11t-137 37t-111 67 t-72.5 104.5t-27 144.5zM182 362q0 -72 28 -124t79.5 -81.5t115.5 -43t144 -13.5q85 0 150 13.5t117.5 44.5t80 85.5t27.5 131.5q0 53 -14.5 94.5t-37 68t-60.5 48.5t-72.5 34.5t-86.5 26.5h-225q-123 -33 -184.5 -98t-61.5 -187zM203 1016q0 -102 54 -160.5t171 -95.5h225 q125 35 186.5 94.5t61.5 159.5q0 127 -90 183t-262 56q-170 0 -258 -54.5t-88 -182.5z" />
<glyph unicode="9" d="M80 924q0 208 125 328t336 120q246 0 363.5 -182.5t117.5 -521.5q0 -192 -35 -326.5t-105 -213t-164 -113.5t-222 -35q-76 0 -167 7t-143 14l-53 7l12 115q179 -25 351 -25q196 0 295 122t100 374q-24 -9 -64 -22.5t-140 -35.5t-171 -22q-436 0 -436 410zM211 924 q0 -153 78.5 -223t236.5 -70q67 0 158.5 20t149.5 40l59 20q-10 542 -352 542q-152 0 -241 -88.5t-89 -240.5z" />
<glyph unicode=":" horiz-adv-x="333" d="M135 0v207h135v-207h-135zM135 676v209h135v-209h-135z" />
<glyph unicode=";" horiz-adv-x="385" d="M59 -248l95 461h137l-121 -461h-111zM143 676v209h136v-209h-136z" />
<glyph unicode="&#x3c;" d="M129 573v127l711 445v-131l-594 -373l594 -391v-135q-26 14 -177 111.5t-322.5 209.5t-211.5 137z" />
<glyph unicode="=" d="M74 696v115h925v-115h-925zM76 326v114h925v-114h-925z" />
<glyph unicode="&#x3e;" d="M129 115v135l594 391l-594 373v131l711 -445v-127q-44 -27 -213 -137.5t-320.5 -209t-177.5 -111.5z" />
<glyph unicode="?" horiz-adv-x="790" d="M18 1399q231 55 342 55q213 0 317.5 -79t104.5 -265q0 -70 -22 -132t-56.5 -108t-77 -88t-84.5 -78t-76.5 -70.5t-56.5 -74.5t-22 -82v-78h-129v84q0 53 22 101.5t56.5 87.5t77 77t84.5 76.5t76.5 79t56.5 91.5t22 106q0 126 -70.5 177.5t-226.5 51.5q-44 0 -124.5 -13.5 t-139.5 -26.5l-59 -13zM256 2v207h135v-207h-135z" />
<glyph unicode="@" horiz-adv-x="2017" d="M113 535q0 253 59 434.5t177.5 293t286.5 163t396 51.5q458 0 665.5 -207.5t207.5 -644.5v-35q0 -118 -9 -209.5t-23.5 -155.5t-39.5 -109t-51.5 -71.5t-66 -41t-75.5 -19t-86 -4.5q-99 0 -149.5 22t-79.5 96q-220 -116 -371 -116q-38 0 -69.5 4t-69.5 17t-67.5 35 t-58.5 61t-48 92t-31 131.5t-12 175.5q0 136 19.5 232t66.5 168.5t129.5 108t204.5 35.5q45 0 108 -13t104 -27l40 -13v35h121v-410q0 -131 2 -213.5t10.5 -144.5t17 -92t30.5 -47.5t42.5 -21t60.5 -3.5q34 0 56.5 3t48.5 14t42 31.5t32.5 56.5t25 89t14 129t5.5 175v37 q0 196 -40.5 332.5t-130 227.5t-230.5 133t-345 42q-205 0 -351 -44.5t-246.5 -143t-148.5 -256.5t-48 -383q0 -191 30.5 -330.5t90.5 -236.5t157 -155.5t222 -84t294 -25.5q36 0 109.5 5.5t128.5 10.5l55 5l6 -117q-201 -21 -299 -21q-156 0 -279 19t-228.5 62.5t-180 116 t-127.5 177t-78.5 247.5t-25.5 327zM721 492q0 -85 10 -150.5t28.5 -107.5t40 -70t50 -42t53.5 -19t55 -5q140 0 332 101q-20 107 -20 385v297q-136 47 -236 47q-76 0 -130.5 -18t-90 -51t-56 -88.5t-28.5 -121t-8 -157.5z" />
<glyph unicode="A" horiz-adv-x="1236" d="M63 0l410 1427h297l404 -1425h-127l-119 387h-623l-115 -389h-127zM336 510h563l-227 801h-107z" />
<glyph unicode="B" horiz-adv-x="1271" d="M195 0v1427h503q207 0 312.5 -84.5t105.5 -265.5q0 -143 -47.5 -223t-138.5 -119q109 -35 172 -111.5t63 -222.5q0 -112 -30.5 -191t-89.5 -124.5t-136 -65.5t-180 -20h-534zM319 117h406q150 0 230.5 66t80.5 223q0 262 -323 262h-394v-551zM319 782h394q143 0 208.5 71 t65.5 212q0 130 -71 188t-222 58h-375v-529z" />
<glyph unicode="C" horiz-adv-x="1097" d="M109 709q0 124 9 218.5t30 181t59 146.5t94.5 105t137.5 66.5t186 21.5q84 0 181 -11t152 -21l54 -11l-8 -117q-217 39 -369 39q-101 0 -172 -27t-114.5 -74t-68 -128t-32.5 -170t-8 -219q0 -90 4 -158t15 -134t29.5 -112.5t48.5 -87t71.5 -64.5t98.5 -37.5t130 -13.5 q60 0 151.5 9.5t153.5 18.5l62 9l6 -114q-223 -45 -385 -45q-105 0 -185.5 21t-137 65.5t-94.5 104t-59.5 144.5t-30.5 178.5t-9 215.5z" />
<glyph unicode="D" horiz-adv-x="1323" d="M195 0v1427h514q115 0 203.5 -35.5t145.5 -96t93 -150t51 -189.5t15 -221q0 -123 -14.5 -226.5t-51 -199.5t-93 -163t-145.5 -106.5t-204 -39.5h-514zM319 119h390q87 0 154 35.5t108 93.5t67.5 140t36.5 166t10 181q0 574 -376 574h-390v-1190z" />
<glyph unicode="E" horiz-adv-x="1161" d="M195 0v1427h852v-118h-728v-523h605v-118h-605v-549h728v-119h-852z" />
<glyph unicode="F" horiz-adv-x="1140" d="M195 0v1427h854v-118h-730v-588h607v-119h-607v-602h-124z" />
<glyph unicode="G" horiz-adv-x="1251" d="M113 711q0 145 15 254.5t52 203t98 153.5t155.5 93t221.5 33q96 0 210.5 -13t181.5 -27l67 -13l-6 -115q-256 47 -442 47q-103 0 -177.5 -27t-121.5 -75t-74.5 -126.5t-38 -170t-10.5 -217.5q0 -125 10.5 -216t38 -169t74.5 -125.5t120.5 -74t176.5 -26.5q58 0 136.5 8 t133 16.5t55.5 8.5v471h-262v117h387v-690q-291 -51 -457 -51q-127 0 -221 32.5t-155.5 91.5t-99 151.5t-53 202t-15.5 253.5z" />
<glyph unicode="H" horiz-adv-x="1411" d="M195 0v1427h124v-649h773v649h125v-1427h-125v659h-773v-659h-124z" />
<glyph unicode="I" horiz-adv-x="489" d="M182 0v1427h125v-1427h-125z" />
<glyph unicode="J" horiz-adv-x="626" d="M70 -31q44 0 69 1t54.5 5t44 10.5t31.5 20.5t24 33t13.5 48.5t8.5 65.5t2 87v1190h127q0 -216 1 -603.5t1 -607.5q0 -52 -3 -94.5t-11 -77t-17.5 -61t-26 -46.5t-32.5 -34.5t-41.5 -24t-48 -15t-57.5 -8.5t-65 -4t-74 -1v116z" />
<glyph unicode="K" horiz-adv-x="1220" d="M195 0v1427h124v-667l244 4l395 663h148l-430 -714l457 -713h-152l-414 643l-248 -4v-639h-124z" />
<glyph unicode="L" horiz-adv-x="1062" d="M195 0v1427h124v-1306h652v-121h-776z" />
<glyph unicode="M" horiz-adv-x="1740" d="M195 0v1427h229l446 -1243l449 1243h227v-1427h-125v1286h-28l-451 -1239h-147l-447 1239h-29v-1286h-124z" />
<glyph unicode="N" horiz-adv-x="1413" d="M195 0v1427h241l608 -1286h50v1286h127v-1427h-240l-614 1286h-48v-1286h-124z" />
<glyph unicode="O" horiz-adv-x="1337" d="M113 707q0 147 15.5 258t54 204.5t101 153t158.5 92.5t226 33t226 -32.5t159.5 -91.5t101.5 -152.5t54 -205t16 -259.5q0 -152 -15.5 -264t-53.5 -202.5t-102 -146t-159.5 -85t-226.5 -29.5q-163 0 -272 45.5t-171 141.5t-87 224.5t-25 315.5zM244 707q0 -105 7 -184 t24.5 -150t48.5 -119.5t77.5 -84.5t113 -52.5t153.5 -16.5q88 0 154.5 15.5t113.5 50.5t77.5 82t48.5 118t25 151.5t7 189.5q0 125 -11 217t-39.5 171t-76 128t-122.5 76.5t-177 27.5q-103 0 -177.5 -27t-122 -76t-75.5 -128t-38.5 -171t-10.5 -218z" />
<glyph unicode="P" horiz-adv-x="1247" d="M195 0v1427h518q228 0 335 -108.5t107 -337.5q0 -234 -109 -359.5t-333 -125.5h-394v-496h-124zM319 616h394q313 0 313 365q0 169 -74.5 248.5t-238.5 79.5h-394v-693z" />
<glyph unicode="Q" horiz-adv-x="1337" d="M113 707q0 147 15.5 258t54 204.5t101 153t158.5 92.5t226 33t226 -32.5t159.5 -91.5t101.5 -152.5t54 -205t16 -259.5q0 -269 -53.5 -427.5t-186.5 -232.5l174 -283l-119 -57l-180 295q-86 -22 -192 -22q-163 0 -272 45.5t-171 141.5t-87 224.5t-25 315.5zM244 707 q0 -105 7 -184t24.5 -150t48.5 -119.5t77.5 -84.5t113 -52.5t153.5 -16.5q88 0 154.5 15.5t113.5 50.5t77.5 82t48.5 118t25 151.5t7 189.5q0 125 -11 217t-39.5 171t-76 128t-122.5 76.5t-177 27.5q-103 0 -177.5 -27t-122 -76t-75.5 -128t-38.5 -171t-10.5 -218z" />
<glyph unicode="R" horiz-adv-x="1282" d="M195 0v1427h520q226 0 334 -101t108 -322q0 -172 -65 -275.5t-209 -140.5l293 -588h-142l-280 559h-435v-559h-124zM319 678h396q170 0 240.5 84t70.5 242t-75.5 231.5t-235.5 73.5h-396v-631z" />
<glyph unicode="S" horiz-adv-x="1093" d="M96 1077q0 375 459 375q70 0 173 -10t171 -20l68 -9l-11 -117q-282 35 -401 35q-163 0 -246.5 -60.5t-83.5 -189.5q0 -45 7.5 -79.5t19.5 -60.5t36.5 -46.5t49 -34.5t67.5 -27t81 -21.5t100 -20.5q90 -18 150.5 -36.5t113.5 -47t83 -67t47 -94.5t17 -132 q0 -227 -113.5 -328.5t-334.5 -101.5q-69 0 -178 9.5t-183 19.5l-75 10l12 116q277 -35 422 -35q163 0 242 71.5t79 232.5q0 67 -17 110.5t-59.5 73.5t-99.5 47.5t-153 34.5q-96 18 -158 35.5t-121.5 47.5t-92 70.5t-52 102.5t-19.5 147z" />
<glyph unicode="T" horiz-adv-x="1013" d="M-6 1309v118h1024v-118h-447v-1309h-125v1309h-452z" />
<glyph unicode="U" horiz-adv-x="1312" d="M168 418v1009h127v-1009q0 -168 91.5 -242t262.5 -74q181 0 275 73t94 243v1009h125v-1009q0 -231 -124 -333.5t-370 -102.5q-236 0 -358.5 103t-122.5 333z" />
<glyph unicode="V" horiz-adv-x="1202" d="M63 1427h130l356 -1308h113l348 1308h129l-379 -1427h-309z" />
<glyph unicode="W" horiz-adv-x="1820" d="M82 1427h127l272 -1302h68l291 1288h141l299 -1288h66l266 1302h127l-299 -1427h-252l-279 1237l-268 -1237h-252z" />
<glyph unicode="X" horiz-adv-x="1189" d="M70 0l442 709l-442 718h143l383 -622l381 622h143l-436 -718l436 -709h-143l-379 616l-385 -616h-143z" />
<glyph unicode="Y" horiz-adv-x="1122" d="M43 1427h141l379 -673l373 673h141l-450 -815v-612h-127v612z" />
<glyph unicode="Z" horiz-adv-x="1167" d="M123 -2v174l774 1092v45h-774v118h921v-174l-774 -1093v-41h774v-121h-921z" />
<glyph unicode="[" horiz-adv-x="614" d="M90 -252v1786h408v-117h-285v-1552h285v-117h-408z" />
<glyph unicode="\" horiz-adv-x="1093" d="M164 1395l131 55l625 -1415l-129 -53z" />
<glyph unicode="]" horiz-adv-x="614" d="M90 -135h285v1552h-285v117h408v-1786h-408v117z" />
<glyph unicode="^" d="M115 672l354 680h129l371 -680h-135l-299 557l-287 -557h-133z" />
<glyph unicode="_" horiz-adv-x="1064" d="M55 -45h877v-115h-877v115z" />
<glyph unicode="`" horiz-adv-x="466" d="M6 1413l45 109l426 -195l-41 -96z" />
<glyph unicode="a" horiz-adv-x="1064" d="M104 289q0 140 73 212t229 87l348 35v92q0 113 -50 164t-151 51q-65 0 -162 -7t-161 -15l-64 -7l-6 100q235 41 401 41q159 0 236 -80.5t77 -246.5v-545q8 -75 134 -90l-7 -98q-158 0 -231 81q-22 -9 -59 -23t-138.5 -37t-187.5 -23q-136 0 -208.5 78.5t-72.5 230.5z M231 291q0 -99 43 -152t127 -53q72 0 160.5 17.5t140.5 34.5l52 18v370l-334 -34q-101 -9 -145 -58t-44 -143z" />
<glyph unicode="b" horiz-adv-x="1105" d="M188 0v1479h123v-508q18 8 49 20t115.5 31.5t155.5 19.5q205 0 284.5 -117t79.5 -395q0 -154 -21.5 -253.5t-76.5 -168.5t-146.5 -98.5t-232.5 -29.5q-57 0 -139.5 5t-136.5 10zM311 102q144 -12 205 -12q76 0 131.5 11t94.5 36.5t63.5 59t38.5 85.5t19 109t5 137 q0 220 -51 311t-194 91q-68 0 -146 -16.5t-122 -33.5l-44 -16v-762z" />
<glyph unicode="c" horiz-adv-x="894" d="M111 530q0 280 96 396t325 116q39 0 106 -6t114 -12l47 -6l-4 -109q-164 19 -242 19q-182 0 -249.5 -87.5t-67.5 -310.5q0 -126 12 -203t46.5 -132.5t96.5 -78t162 -22.5q35 0 96 5t105 9l43 5l6 -109q-185 -24 -273 -24q-126 0 -206 28.5t-128 96.5t-66.5 168t-18.5 257 z" />
<glyph unicode="d" horiz-adv-x="1107" d="M111 504q0 277 97 407.5t331 130.5q102 0 258 -24v416h123v-1434h-123v74q-7 -4 -18.5 -10t-48.5 -22.5t-74 -29t-89 -22.5t-98 -10q-58 0 -104 9.5t-96 42t-82.5 87.5t-54 153t-21.5 232zM233 500q0 -103 15 -179t37.5 -119t57.5 -68.5t66 -33t72 -8.5q68 1 147 23 t124 43l45 22v729q-6 1 -60.5 7.5t-105.5 11t-88 4.5q-90 0 -151 -27t-95.5 -84t-49 -133.5t-14.5 -187.5z" />
<glyph unicode="e" horiz-adv-x="1038" d="M111 508q0 534 421 534q203 0 303.5 -115t100.5 -368l-4 -98h-696q0 -189 64 -279t220 -90q67 0 160.5 5t153.5 9l61 5l4 -103q-231 -28 -391 -28q-113 1 -190.5 34.5t-122.5 102.5t-64.5 163.5t-19.5 227.5zM236 563h577q0 200 -67 285.5t-214 85.5q-145 0 -220.5 -88.5 t-75.5 -282.5z" />
<glyph unicode="f" horiz-adv-x="679" d="M61 911v113h136v104q0 111 14 182.5t47.5 113.5t82 58.5t124.5 16.5q32 0 82 -3t85 -6l34 -3l-2 -103q-122 5 -181 5q-64 0 -98.5 -22t-51 -78.5t-16.5 -162.5v-102h312v-113h-312v-911h-120v911h-136z" />
<glyph unicode="g" horiz-adv-x="1048" d="M102 -170q0 87 37.5 138.5t130.5 119.5q-53 33 -53 139q0 16 16.5 56t32.5 72l17 32q-166 70 -166 309q0 348 368 348q47 0 101 -6.5t84 -13.5l30 -6l295 6v-109l-200 5q71 -71 71 -224q0 -191 -92 -266.5t-295 -75.5q-58 0 -104 8q-41 -99 -41 -126q0 -25 2 -38.5 t11.5 -26.5t24.5 -18.5t46.5 -10.5t71 -6t104.5 -1q111 0 179 -11.5t117 -44t69 -90.5t20 -151q0 -169 -111.5 -246t-337.5 -77q-126 0 -206.5 15.5t-131 53.5t-70.5 96t-20 150zM225 -162q0 -63 12.5 -102t46.5 -66t93.5 -38t154.5 -11q168 0 244 50t76 163q0 52 -10 87 t-27.5 56t-52.5 32t-73.5 14.5t-102.5 3.5l-232 8q-76 -54 -102.5 -93.5t-26.5 -103.5zM240 696q0 -126 53 -182.5t186 -56.5q142 0 202 53.5t60 185.5q0 146 -55.5 196t-200.5 50q-126 0 -185.5 -56.5t-59.5 -189.5z" />
<glyph unicode="h" horiz-adv-x="1157" d="M188 0v1479h123v-508q20 8 53 20t121 31.5t158 19.5q85 0 143.5 -17t98 -52t61 -98t30.5 -143t9 -200v-532h-123v530q0 96 -5 157t-19 112t-40.5 77.5t-67 40t-101.5 13.5q-68 0 -147.5 -17t-125.5 -34l-45 -17v-862h-123z" />
<glyph unicode="i" horiz-adv-x="466" d="M172 0v1024h123v-1024h-123zM172 1280v154h123v-154h-123z" />
<glyph unicode="j" horiz-adv-x="495" d="M-63 -348q114 64 167 109.5t75 103t22 155.5v1004h123v-1006q0 -124 -28.5 -201.5t-98.5 -138t-209 -131.5zM201 1284v154h123v-154h-123z" />
<glyph unicode="k" horiz-adv-x="1007" d="M188 0v1479h123v-873l170 6l332 412h139l-360 -469l364 -555h-141l-332 492l-172 -7v-485h-123z" />
<glyph unicode="l" horiz-adv-x="483" d="M180 0v1479h123v-1479h-123z" />
<glyph unicode="m" horiz-adv-x="1777" d="M188 0v1024h123v-74q15 9 42 23t102.5 38t142.5 27q27 1 49 1q38 0 66 -3q117 -15 172 -88q2 1 34 13t53 19.5t62.5 20.5t75 21t75 14t77.5 6q85 0 143 -17t97.5 -51t61.5 -96.5t31 -143.5t9 -202v-532h-123v502q0 75 -2 126.5t-8 100t-17 79t-28 56t-42.5 39t-58.5 20.5 t-78 7q-69 0 -147 -21.5t-116 -38.5t-48 -24q29 -86 29 -314v-532h-121v528q0 82 -3.5 137t-13 103t-25.5 76.5t-42.5 49t-63 28.5t-88.5 8q-68 0 -142.5 -21.5t-114.5 -42.5l-40 -22v-844h-123z" />
<glyph unicode="n" horiz-adv-x="1167" d="M188 0v1024h123v-76q7 4 19.5 10t51 22.5t76 29t89 22.5t96.5 10q85 0 143.5 -17t98 -52t61 -98t30.5 -143t9 -200v-532h-121v532q0 96 -5 157t-19 112t-41 77t-68.5 40t-103.5 14q-71 0 -150 -21.5t-123 -42.5l-43 -22v-846h-123z" />
<glyph unicode="o" horiz-adv-x="1079" d="M111 528q0 274 98.5 394t333.5 120q222 0 324 -123.5t102 -392.5q0 -145 -18.5 -241.5t-66 -168t-131 -104t-210.5 -32.5q-129 0 -212.5 30t-132.5 99.5t-68 168.5t-19 250zM236 528q0 -100 6.5 -166t25.5 -122t53 -86.5t88.5 -47t133.5 -16.5q56 0 99.5 9t75 25.5t54 45 t36 61.5t21.5 81t10.5 97t2.5 117q0 218 -70.5 312t-228.5 94q-176 0 -241.5 -87t-65.5 -317z" />
<glyph unicode="p" horiz-adv-x="1107" d="M188 -461v1485h123v-78q7 4 18.5 10.5t48 23t73 29t87.5 23t97 10.5q191 0 277.5 -123.5t86.5 -394.5q0 -294 -102.5 -419t-339.5 -125q-132 0 -246 26v-467h-123zM311 115q146 -25 240 -25q178 0 249.5 99t71.5 339q0 215 -63 309.5t-186 94.5q-67 0 -145 -23t-122 -46 l-45 -23v-725z" />
<glyph unicode="q" horiz-adv-x="1099" d="M111 492q0 143 23 242.5t76.5 170t144 104t223.5 33.5q45 0 128.5 -4.5t143.5 -9.5l61 -4v-1485h-123v506q-14 -7 -39 -18t-99.5 -29t-145.5 -18q-212 0 -302.5 127t-90.5 385zM236 496q0 -205 60 -305.5t208 -100.5q68 0 139 18t108 36l37 18v760q-142 10 -210 10 q-101 0 -168 -26t-105 -83t-53.5 -134.5t-15.5 -192.5z" />
<glyph unicode="r" horiz-adv-x="727" d="M188 0v1024h123v-145q19 14 52 36t131.5 67t191.5 62v-124q-87 -17 -180.5 -56t-143.5 -70l-51 -30v-764h-123z" />
<glyph unicode="s" horiz-adv-x="995" d="M117 754q0 65 20.5 115.5t54.5 82.5t81.5 52.5t97.5 29t106 8.5q69 0 160.5 -8.5t148.5 -17.5l56 -8l-4 -109q-222 33 -355 33q-241 0 -241 -174q0 -80 52.5 -113.5t213.5 -58.5q86 -14 142 -28t103 -35.5t72 -51.5t38.5 -72.5t13.5 -101.5q0 -172 -100.5 -244.5 t-295.5 -72.5q-56 0 -144 9t-148 18l-60 9l8 109q230 -35 334 -35q143 0 212 43.5t69 157.5q0 89 -54.5 122t-226.5 60q-101 16 -160.5 33t-107 48t-67 79t-19.5 121z" />
<glyph unicode="t" horiz-adv-x="749" d="M61 911v113h152v322h123v-322h342v-113h-342v-497q0 -84 3 -133t12 -90t27.5 -60t46.5 -29t73 -10q25 0 72.5 3.5t82.5 6.5l35 4l6 -108q-135 -21 -207 -21q-104 0 -161.5 31.5t-85 111.5t-27.5 228v563h-152z" />
<glyph unicode="u" horiz-adv-x="1142" d="M174 489v535h121v-530q0 -99 5 -161t18.5 -113t40.5 -77t68 -39.5t103 -13.5q68 0 143.5 21.5t116.5 42.5l41 22v848h121v-1024h-121v72q-18 -10 -48.5 -25.5t-114 -41t-152.5 -25.5q-72 0 -124 10.5t-91 36.5t-63 63t-38.5 96.5t-20 130.5t-5.5 172z" />
<glyph unicode="v" horiz-adv-x="985" d="M57 1024h129l267 -918h79l269 918h127l-303 -1024h-269z" />
<glyph unicode="w" horiz-adv-x="1552" d="M63 1024h125l228 -913h28l267 893h131l264 -893h31l227 913h125l-258 -1024h-215l-242 844l-242 -844h-213z" />
<glyph unicode="x" horiz-adv-x="940" d="M63 0l330 512l-330 512h136l270 -422l272 422h136l-330 -512l330 -512h-138l-270 420l-270 -420h-136z" />
<glyph unicode="y" horiz-adv-x="985" d="M57 1024h125l273 -907h73l275 907h125l-443 -1485h-123l136 461h-140z" />
<glyph unicode="z" horiz-adv-x="983" d="M111 0v111l612 802h-612v111h759v-111l-610 -802h610v-111h-759z" />
<glyph unicode="{" horiz-adv-x="610" d="M12 584v106q116 29 161.5 82t45.5 148q0 26 -7 124t-7 138q0 186 88.5 269t292.5 91l4 -117q-149 -7 -202.5 -64.5t-53.5 -184.5q0 -35 7 -127.5t7 -120.5q0 -129 -45 -190t-160 -99q114 -37 159.5 -101t45.5 -190q-1 -14 -7.5 -103.5t-6.5 -135.5q0 -125 54 -185 t202 -67l-4 -117q-203 7 -292 91.5t-89 268.5q0 44 7 137t7 115q0 93 -46 146t-161 86z" />
<glyph unicode="|" d="M469 -209v1667h125v-1667h-125z" />
<glyph unicode="}" horiz-adv-x="610" d="M12 -143q148 7 202 67t54 185q0 42 -6.5 124t-7.5 115q0 126 45.5 190t159.5 101q-115 38 -160 99t-45 190q0 28 7 120.5t7 127.5q0 127 -53.5 184.5t-202.5 64.5l2 117q204 -8 292.5 -91t88.5 -269q0 -40 -7 -138t-7 -124q0 -95 46.5 -148t162.5 -82v-106 q-115 -33 -162 -86.5t-47 -145.5q0 -22 7 -115t7 -137q0 -184 -89 -268.5t-292 -91.5z" />
<glyph unicode="~" d="M133 662q5 4 13 11.5t33.5 26t51 33t60 26t65.5 11.5q65 0 203 -52t180 -52q35 0 84 25t81 50l32 25l14 -121q-4 -4 -12 -11.5t-32 -25.5t-48.5 -32t-57.5 -25.5t-63 -11.5q-64 0 -202.5 53t-182.5 53q-36 0 -86.5 -25.5t-83.5 -51.5l-32 -25z" />
<glyph unicode="&#xa1;" d="M487 815v207h136v-207h-136zM489 -410l5 971h122l5 -971h-132z" />
<glyph unicode="&#xa2;" horiz-adv-x="894" d="M96 508q0 221 92 326.5t269 113.5v252h110v-256q40 -2 95 -7t90 -9l34 -4l-6 -113q-194 16 -272 16q-156 0 -218.5 -71.5t-62.5 -247.5q0 -180 61.5 -244.5t235.5 -64.5q35 0 100 3.5t112 7.5l48 3l4 -113q-133 -16 -219 -20v-250h-110v248q-97 4 -162 25.5t-112 70.5 t-68 130.5t-21 203.5z" />
<glyph unicode="&#xa3;" d="M176 0v111h180v626h-139v109h139v131q0 126 18 208t58 127.5t93 63t134 17.5q39 0 102 -6.5t107 -13.5l43 -7v-106q-171 22 -249 22q-75 0 -113.5 -27t-55 -93t-16.5 -195v-121h359v-109h-359v-626h332l160 32l22 -106l-168 -37h-647z" />
<glyph unicode="&#xa4;" horiz-adv-x="1083" d="M102 164l146 141q-67 94 -67.5 210t65.5 210l-144 143l88 88l142 -145q94 66 210 66t210 -66l143 145l88 -88l-145 -143q66 -94 66 -210t-66 -210l145 -141l-88 -88l-143 143q-94 -66 -210 -65.5t-210 67.5l-142 -145zM300 516q0 -102 69 -174q72 -69 173.5 -69t172.5 69 q71 72 71 174t-71 172t-172.5 70t-173.5 -70q-69 -70 -69 -172z" />
<glyph unicode="&#xa5;" horiz-adv-x="1105" d="M35 1352h141l379 -584l373 584h143l-366 -586h303v-109h-369l-21 -41v-153h392v-111h-392v-352h-126v352h-394v111h394v153l-19 41h-377v109h310z" />
<glyph unicode="&#xa6;" d="M465 -211v762h123v-762h-123zM465 772v764h123v-764h-123z" />
<glyph unicode="&#xa7;" d="M147 543q0 82 45 158t72 96q-46 35 -68 88t-22 141q0 157 98.5 235t280.5 78q59 0 141.5 -7.5t135.5 -15.5l53 -7l-6 -105q-220 27 -318 27q-134 0 -199 -48.5t-65 -152.5q0 -48 12.5 -81.5t32.5 -55.5t61 -38.5t81.5 -26t109.5 -21.5q89 -16 144.5 -34t101.5 -50.5 t66 -83t20 -125.5q0 -55 -20 -119t-37 -97t-29 -50q75 -60 75 -199q0 -336 -376 -336q-57 0 -146 8.5t-149 16.5l-60 8l13 104q222 -30 335 -30q265 0 265 223q0 36 -7 63t-26.5 47t-38.5 32.5t-59.5 23.5t-72.5 17t-93 16q-92 16 -152.5 36t-108 53.5t-69 85.5t-21.5 126z M270 559q0 -97 59 -140.5t199 -66.5q150 -23 217 -55q5 8 16.5 33t25.5 75.5t14 94.5q0 43 -11.5 74t-30 51t-53 35t-69 23.5t-90.5 18.5q-146 26 -199 50l-3 -4q-3 -5 -6.5 -10t-9 -13.5t-10.5 -17t-11.5 -20.5t-11.5 -23t-10 -24.5t-8.5 -26.5t-5.5 -27t-2 -27z" />
<glyph unicode="&#xa8;" horiz-adv-x="466" d="M-16 1290v162h120v-162h-120zM387 1290v162h119v-162h-119z" />
<glyph unicode="&#xa9;" d="M20 889q0 150 67.5 275t187.5 197.5t268 72.5q112 0 210 -43.5t166.5 -117t108 -173.5t39.5 -211q0 -149 -66.5 -273t-188 -197t-271.5 -73q-110 0 -207 43t-166 115.5t-108.5 173t-39.5 211.5zM100 889q0 -194 126.5 -327.5t316.5 -133.5t316 133.5t126 327.5 q0 126 -57 232t-159 168.5t-226 62.5q-125 0 -227.5 -62.5t-159 -168.5t-56.5 -232zM309 889q0 156 52 234.5t184 78.5q36 0 74 -3t57 -6l20 -3l-2 -105q-75 15 -149 15q-43 0 -70.5 -14t-40.5 -44.5t-17.5 -64.5t-4.5 -88q0 -105 28 -158t105 -53q30 0 67.5 3.5t59.5 6.5 l22 4l2 -102q-79 -17 -151 -17q-130 0 -183 79t-53 237z" />
<glyph unicode="&#xaa;" horiz-adv-x="1060" d="M283 954q0 74 37.5 112t115.5 44l209 14v47q0 65 -24 89t-82 24q-31 0 -84.5 -3.5t-90.5 -6.5l-38 -4l-4 63q141 17 217 17q89 0 129.5 -42.5t40.5 -138.5v-274q7 -24 24 -34t51 -13l-4 -57q-38 1 -61.5 11t-48.5 34q-129 -45 -244 -45q-64 0 -103.5 44.5t-39.5 118.5z M350 950q0 -94 82 -94q41 0 94 8.5t86 17.5l33 9v174l-199 -12q-52 -4 -74 -28t-22 -75z" />
<glyph unicode="&#xab;" horiz-adv-x="1157" d="M184 459v104l371 283v-129l-264 -203l264 -223v-131zM647 459v104l371 283v-129l-264 -203l264 -223v-131z" />
<glyph unicode="&#xac;" d="M131 580v118h827v-456h-120v338h-707z" />
<glyph unicode="&#xad;" horiz-adv-x="901" d="M127 516v119h645v-119h-645z" />
<glyph unicode="&#xae;" d="M10 889q0 151 66.5 277t189.5 201t277 75t277.5 -74.5t191 -200.5t67.5 -278q0 -151 -68 -277t-191.5 -201t-276.5 -75q-116 0 -216 43.5t-169 118.5t-108.5 176.5t-39.5 214.5zM90 889q0 -197 130 -335t323 -138q126 0 230.5 64t163 172t58.5 237q0 198 -130 335.5 t-322 137.5q-193 0 -323 -137.5t-130 -335.5zM322 565v645h204q127 0 183.5 -43.5t56.5 -146.5q0 -77 -25 -123.5t-86 -67.5l123 -264h-106l-117 252h-135v-252h-98zM420 903h137q60 0 86.5 25t26.5 88q0 60 -34 84t-108 24h-108v-221z" />
<glyph unicode="&#xaf;" horiz-adv-x="466" d="M-43 1305v108h578v-108h-578z" />
<glyph unicode="&#xb0;" d="M213 1155q0 127 79.5 206t207.5 79q127 0 205.5 -78.5t78.5 -206.5t-78.5 -206.5t-205.5 -78.5q-128 0 -207.5 79t-79.5 206zM305 1155q0 -89 53 -143t142 -54t143.5 54t54.5 143t-54.5 144t-143.5 55t-142 -54.5t-53 -144.5z" />
<glyph unicode="&#xb1;" d="M92 659v115h393v273h119v-273h404v-115h-404v-276h-119v276h-393zM94 137v115h914v-115h-914z" />
<glyph unicode="&#xb2;" horiz-adv-x="542" d="M49 979v98l189 191q55 55 80.5 93.5t25.5 86.5q0 84 -106 84q-28 0 -72 -5t-74 -11l-31 -5l-6 101q117 24 203 24q101 0 150 -44t49 -136q0 -68 -31 -120.5t-98 -116.5l-135 -140h274v-100h-418z" />
<glyph unicode="&#xb3;" horiz-adv-x="542" d="M55 981l6 96q115 -16 209 -16q56 0 83.5 25.5t27.5 70.5q0 100 -105 100h-133v97h131q33 0 62 31t29 73q0 39 -24.5 58.5t-80.5 19.5q-39 0 -86.5 -4t-75.5 -8l-28 -4l-7 96q115 20 205 20q107 0 158 -40.5t51 -127.5q0 -102 -88 -155q56 -17 81.5 -49t25.5 -109 q0 -99 -55.5 -148t-159.5 -49q-44 0 -100.5 6t-90.5 12z" />
<glyph unicode="&#xb4;" horiz-adv-x="548" d="M61 1327l426 195l48 -113l-431 -182z" />
<glyph unicode="&#xb6;" d="M16 1061q0 164 109 268.5t272 104.5h674v-105h-168v-1329h-112v1329h-267v-1329h-112v694h-15q-165 0 -273 102t-108 265z" />
<glyph unicode="&#xb7;" horiz-adv-x="507" d="M174 520v207h135v-207h-135z" />
<glyph unicode="&#xb8;" horiz-adv-x="1705" d="M795 -420l4 82q84 -6 145 -6q92 0 92 84q0 76 -92 76h-96v186h78v-108q119 0 171 -32t52 -122q0 -88 -48.5 -130t-133.5 -42q-40 0 -83 3t-66 6z" />
<glyph unicode="&#xb9;" horiz-adv-x="542" d="M68 1477l206 141h105v-639h-111v518l-149 -102z" />
<glyph unicode="&#xba;" horiz-adv-x="1077" d="M295 1073q0 143 58.5 210t176.5 67t175 -67t57 -210q0 -144 -57 -213t-175 -69t-176.5 69t-58.5 213zM365 1073q0 -117 38.5 -167t126.5 -50t125 50t37 167q0 116 -37 163.5t-125 47.5q-89 0 -127 -47.5t-38 -163.5z" />
<glyph unicode="&#xbb;" horiz-adv-x="1157" d="M139 160v131l262 223l-262 203v129l371 -283v-104zM602 160v131l262 223l-262 203v129l371 -283v-104z" />
<glyph unicode="&#xbf;" horiz-adv-x="790" d="M18 -86q0 70 22 132t57 108t77 88t84 78t77 70.5t57 74.5t22 82v78h129v-84q0 -53 -22 -101.5t-57 -87.5t-77 -77t-84 -76.5t-77 -79t-57 -91.5t-22 -106q0 -126 70.5 -177.5t226.5 -51.5q44 0 125 13.5t140 26.5l59 13l14 -121q-231 -55 -342 -55q-213 0 -317.5 79 t-104.5 265zM410 815v207h135v-207h-135z" />
<glyph unicode="&#xc0;" horiz-adv-x="1236" d="M66 0l409 1427h297l404 -1425h-127l-119 387h-623l-114 -389h-127zM338 510h563l-227 801h-107zM352 1792l47 113l426 -195l-43 -98z" />
<glyph unicode="&#xc1;" horiz-adv-x="1236" d="M66 0l409 1427h297l404 -1425h-127l-119 387h-623l-114 -389h-127zM338 510h563l-227 801h-107zM397 1737l426 194l47 -112l-430 -183z" />
<glyph unicode="&#xc2;" horiz-adv-x="1236" d="M66 0l409 1427h297l404 -1425h-127l-119 387h-623l-114 -389h-127zM313 1628l254 291h99l254 -291h-140l-162 184l-165 -184h-140zM338 510h563l-227 801h-107z" />
<glyph unicode="&#xc3;" horiz-adv-x="1236" d="M63 0l410 1427h297l404 -1425h-127l-119 387h-623l-115 -389h-127zM256 1786q13 13 34 33t72.5 53t86.5 33q41 0 110 -30t131.5 -59.5t87.5 -29.5q18 0 56 24.5t67 49.5l29 24l33 -94q-12 -13 -32 -32.5t-68.5 -52t-82.5 -32.5q-49 0 -174.5 60.5t-156.5 60.5 q-20 0 -61 -26t-72 -52l-31 -26zM336 510h563l-227 801h-107z" />
<glyph unicode="&#xc4;" horiz-adv-x="1236" d="M66 0l409 1427h297l404 -1425h-127l-119 387h-623l-114 -389h-127zM338 510h563l-227 801h-107zM387 1700v162h119v-162h-119zM788 1700v162h119v-162h-119z" />
<glyph unicode="&#xc5;" horiz-adv-x="1236" d="M66 0l395 1378q-68 59 -68 158q0 95 62.5 150t162.5 55t163 -55t63 -150q0 -94 -62 -150l394 -1384h-127l-119 387h-623l-114 -389h-127zM338 510h563l-227 801h-107zM496 1536q0 -44 22.5 -73t63.5 -36h73q40 8 63 36.5t23 72.5q0 53 -32.5 82t-90.5 29t-90 -29t-32 -82 z" />
<glyph unicode="&#xc6;" horiz-adv-x="1839" d="M78 0l479 1427h1174v-118h-727v-516h604v-119h-604v-555h727v-119h-852v389h-535l-133 -389h-133zM381 510h498v799h-228z" />
<glyph unicode="&#xc7;" horiz-adv-x="1099" d="M109 709q0 124 9 218.5t30 181t59 146.5t94.5 105t137.5 66.5t186 21.5q84 0 181 -11t152 -21l54 -11l-8 -117q-217 39 -369 39q-101 0 -172 -27t-114.5 -74t-68 -128t-32.5 -170t-8 -219q0 -90 4 -158t15 -134t29.5 -112.5t48.5 -87t71.5 -64.5t98.5 -37.5t130 -13.5 q60 0 151.5 9.5t153.5 18.5l62 9l6 -114q-205 -41 -365 -45v-86q119 0 171 -32t52 -122q0 -88 -48.5 -130t-133.5 -42q-40 0 -83 3t-66 6l-23 3l4 82q85 -6 146 -6q92 0 92 84q0 76 -92 76h-97v166q-111 7 -191.5 43t-131.5 94.5t-81.5 150t-42 195.5t-11.5 244z" />
<glyph unicode="&#xc8;" horiz-adv-x="1161" d="M195 0v1427h852v-118h-728v-523h605v-118h-605v-549h728v-119h-852zM377 1792l47 113l426 -195l-43 -98z" />
<glyph unicode="&#xc9;" horiz-adv-x="1171" d="M197 0v1427h852v-118h-727v-523h604v-118h-604v-549h727v-119h-852zM418 1737l426 194l47 -112l-430 -183z" />
<glyph unicode="&#xca;" horiz-adv-x="1171" d="M197 0v1427h852v-118h-727v-523h604v-118h-604v-549h727v-119h-852zM328 1628l254 291h98l254 -291h-139l-162 184l-166 -184h-139z" />
<glyph unicode="&#xcb;" horiz-adv-x="1171" d="M197 0v1427h852v-118h-727v-523h604v-118h-604v-549h727v-119h-852zM369 1700v162h118v-162h-118zM770 1700v162h121v-162h-121z" />
<glyph unicode="&#xcc;" horiz-adv-x="489" d="M-49 1792l47 113l426 -195l-43 -98zM182 0v1427h125v-1427h-125z" />
<glyph unicode="&#xcd;" horiz-adv-x="489" d="M29 1716l426 195l47 -113l-430 -182zM182 0v1427h125v-1427h-125z" />
<glyph unicode="&#xce;" horiz-adv-x="489" d="M-82 1645l275 268h108l272 -268h-145l-180 170l-180 -170h-150zM182 0v1427h125v-1427h-125z" />
<glyph unicode="&#xcf;" horiz-adv-x="489" d="M-20 1694v161h120v-161h-120zM182 0v1427h125v-1427h-125zM395 1694v161h119v-161h-119z" />
<glyph unicode="&#xd0;" horiz-adv-x="1323" d="M47 641v119h148v667h514q115 0 203.5 -35.5t145.5 -96t93 -150t51 -189.5t15 -221q0 -123 -14.5 -226.5t-51 -199.5t-93 -163t-145.5 -106.5t-204 -39.5h-514v641h-148zM319 119h390q87 0 154 35.5t108 93.5t67.5 140t36.5 166t10 181q0 574 -376 574h-390v-549h322v-119 h-322v-522z" />
<glyph unicode="&#xd1;" horiz-adv-x="1406" d="M188 0v1427h242l608 -1286h49v1286h127v-1427h-237l-615 1286h-49v-1286h-125zM373 1788q11 12 30.5 29t67 46t82.5 29q50 0 161.5 -51t139.5 -51q18 0 52.5 20.5t59.5 41.5l25 20l29 -96q-10 -11 -27.5 -27.5t-61.5 -44t-77 -27.5q-47 0 -160 52.5t-143 52.5 q-21 0 -58 -22.5t-63 -45.5l-27 -22z" />
<glyph unicode="&#xd2;" horiz-adv-x="1343" d="M115 707q0 147 15.5 258t54 204.5t101 153t158.5 92.5t226 33t226 -32.5t159.5 -91.5t101.5 -152.5t54 -205t16 -259.5q0 -152 -15.5 -264t-53.5 -202.5t-102 -146t-159.5 -85t-226.5 -29.5q-163 0 -272 45.5t-171 141.5t-87 224.5t-25 315.5zM246 707q0 -105 7 -184 t24.5 -150t48.5 -119.5t77.5 -84.5t113 -52.5t153.5 -16.5q88 0 154.5 15.5t113.5 50.5t77.5 82t48.5 118t25 151.5t7 189.5q0 125 -11 217t-39.5 171t-76 128t-122.5 76.5t-177 27.5q-103 0 -177.5 -27t-122 -76t-75.5 -128t-38.5 -171t-10.5 -218zM422 1792l47 113 l426 -195l-43 -98z" />
<glyph unicode="&#xd3;" horiz-adv-x="1343" d="M115 707q0 147 15.5 258t54 204.5t101 153t158.5 92.5t226 33t226 -32.5t159.5 -91.5t101.5 -152.5t54 -205t16 -259.5q0 -152 -15.5 -264t-53.5 -202.5t-102 -146t-159.5 -85t-226.5 -29.5q-163 0 -272 45.5t-171 141.5t-87 224.5t-25 315.5zM246 707q0 -105 7 -184 t24.5 -150t48.5 -119.5t77.5 -84.5t113 -52.5t153.5 -16.5q88 0 154.5 15.5t113.5 50.5t77.5 82t48.5 118t25 151.5t7 189.5q0 125 -11 217t-39.5 171t-76 128t-122.5 76.5t-177 27.5q-103 0 -177.5 -27t-122 -76t-75.5 -128t-38.5 -171t-10.5 -218zM428 1737l426 194 l47 -112l-430 -183z" />
<glyph unicode="&#xd4;" horiz-adv-x="1343" d="M115 707q0 147 15.5 258t54 204.5t101 153t158.5 92.5t226 33t226 -32.5t159.5 -91.5t101.5 -152.5t54 -205t16 -259.5q0 -152 -15.5 -264t-53.5 -202.5t-102 -146t-159.5 -85t-226.5 -29.5q-163 0 -272 45.5t-171 141.5t-87 224.5t-25 315.5zM246 707q0 -105 7 -184 t24.5 -150t48.5 -119.5t77.5 -84.5t113 -52.5t153.5 -16.5q88 0 154.5 15.5t113.5 50.5t77.5 82t48.5 118t25 151.5t7 189.5q0 125 -11 217t-39.5 171t-76 128t-122.5 76.5t-177 27.5q-103 0 -177.5 -27t-122 -76t-75.5 -128t-38.5 -171t-10.5 -218zM367 1628l254 291h98 l254 -291h-139l-162 184l-166 -184h-139z" />
<glyph unicode="&#xd5;" horiz-adv-x="1343" d="M115 707q0 147 16 258t54.5 204.5t101.5 153.5t159 92.5t226 32.5t226 -32.5t159 -91.5t101 -152.5t53.5 -205t15.5 -259.5q0 -153 -15.5 -264.5t-53 -202t-101 -146t-159 -85t-226.5 -29.5t-227.5 31t-159.5 87.5t-101 148t-53.5 201.5t-15.5 259zM246 707 q0 -105 7 -184t24.5 -150t48.5 -119.5t78 -84.5t113.5 -52.5t154.5 -16.5q106 0 180 24.5t122 69t75 122t37 168.5t10 223q0 157 -18 265t-64 191.5t-130.5 123.5t-211.5 40q-104 0 -179 -27t-122.5 -76t-75.5 -128t-38.5 -171t-10.5 -218zM344 1788q11 12 30.5 29t67 46 t82.5 29q50 0 161.5 -51t139.5 -51q18 0 52.5 20.5t60.5 41.5l25 20l28 -96q-10 -11 -27.5 -27.5t-61.5 -44t-77 -27.5q-47 0 -160 52.5t-143 52.5q-21 0 -57.5 -22.5t-62.5 -45.5l-27 -22z" />
<glyph unicode="&#xd6;" horiz-adv-x="1343" d="M115 707q0 147 16 258t54.5 204.5t101.5 153.5t159 92.5t226 32.5t226 -32.5t159 -91.5t101 -152.5t53.5 -205t15.5 -259.5q0 -153 -15.5 -264.5t-53 -202t-101 -146t-159 -85t-226.5 -29.5t-227.5 31t-159.5 87.5t-101 148t-53.5 201.5t-15.5 259zM246 707 q0 -105 7 -184t24.5 -150t48.5 -119.5t78 -84.5t113.5 -52.5t154.5 -16.5q106 0 180 24.5t122 69t75 122t37 168.5t10 223q0 157 -18 265t-64 191.5t-130.5 123.5t-211.5 40q-104 0 -179 -27t-122.5 -76t-75.5 -128t-38.5 -171t-10.5 -218zM403 1700v162h121v-162h-121z M807 1700v162h119v-162h-119z" />
<glyph unicode="&#xd7;" horiz-adv-x="1550" d="M383 123l397 414l-393 407l86 82l389 -408l391 408l86 -82l-395 -407l399 -414l-86 -80l-395 410l-395 -410z" />
<glyph unicode="&#xd8;" horiz-adv-x="1337" d="M113 707q0 147 15.5 258t54 204.5t101 153t158.5 92.5t226 33q161 0 268 -49l108 233l105 -43l-117 -248q104 -87 148.5 -243.5t44.5 -390.5q0 -152 -15.5 -264t-53.5 -202.5t-102 -146t-159.5 -85t-226.5 -29.5q-148 0 -254 38l-119 -254l-102 48l120 260 q-110 81 -155 236t-45 399zM244 707q0 -196 28 -320t99 -194l512 1091q-85 43 -215 43q-103 0 -177.5 -27t-122 -76t-75.5 -128t-38.5 -171t-10.5 -218zM467 133q76 -33 201 -33q88 0 154.5 15.5t113.5 50.5t77.5 82t48.5 118t25 151.5t7 189.5q0 184 -27.5 309t-93.5 198z " />
<glyph unicode="&#xd9;" horiz-adv-x="1312" d="M168 418v1009h127v-1009q0 -168 91.5 -242t262.5 -74q181 0 275 73t94 243v1009h125v-1009q0 -231 -124 -333.5t-370 -102.5q-236 0 -358.5 103t-122.5 333zM328 1792l47 113l426 -195l-43 -98z" />
<glyph unicode="&#xda;" horiz-adv-x="1314" d="M170 418v1009h127v-1009q0 -168 91.5 -242t262.5 -74q181 0 275 73t94 243v1009h125v-1009q0 -231 -124 -333.5t-370 -102.5q-236 0 -358.5 103t-122.5 333zM416 1737l426 194l47 -112l-430 -183z" />
<glyph unicode="&#xdb;" horiz-adv-x="1314" d="M170 418v1009h127v-1009q0 -168 91.5 -242t262.5 -74q181 0 275 73t94 243v1009h125v-1009q0 -231 -124 -333.5t-370 -102.5q-236 0 -358.5 103t-122.5 333zM356 1628l254 291h99l254 -291h-140l-161 184l-166 -184h-140z" />
<glyph unicode="&#xdc;" horiz-adv-x="1314" d="M172 418v1009h125v-1009q0 -168 91.5 -242t262.5 -74q181 0 275 73t94 243v1009h127v-1009q0 -231 -125 -333.5t-371 -102.5q-236 0 -357.5 103t-121.5 333zM430 1700v162h119v-162h-119zM831 1700v162h121v-162h-121z" />
<glyph unicode="&#xdd;" horiz-adv-x="1105" d="M35 1427h141l379 -673l373 673h141l-451 -815v-612h-126v612zM301 1737l426 194l47 -112l-430 -183z" />
<glyph unicode="&#xde;" horiz-adv-x="1216" d="M170 0v1427h125v-237h393q228 0 336.5 -109t108.5 -338q0 -233 -110.5 -359t-334.5 -126h-393v-258h-125zM295 379h393q160 0 236.5 95t76.5 269q0 170 -74 249t-239 79h-393v-692z" />
<glyph unicode="&#xdf;" horiz-adv-x="1226" d="M188 0v1128q0 206 90.5 288.5t294.5 82.5q207 0 293 -66.5t86 -220.5q0 -202 -147 -264q-87 -35 -111 -52t-24 -48q0 -17 9 -30t47 -38.5t120 -72.5q158 -89 197 -120q65 -50 72 -113q1 -9 1 -19q0 -107 -13 -181t-44.5 -132.5t-87.5 -92t-139.5 -50.5t-202.5 -17 q-30 0 -75 4.5t-75 9.5l-30 4l8 104q137 -8 172 -8q94 0 157.5 13.5t103.5 38t61 69.5t28.5 96.5t7.5 130.5q0 28 -49.5 65.5t-183.5 108.5q-135 71 -174 114t-39 110q0 68 38.5 105t133.5 77q69 30 89.5 71t20.5 111q0 99 -55.5 138.5t-194.5 39.5q-70 0 -115.5 -11.5 t-80 -41.5t-49.5 -84.5t-15 -138.5v-1108h-125z" />
<glyph unicode="&#xe0;" horiz-adv-x="1069" d="M94 289q0 141 72.5 212.5t228.5 86.5l348 35v92q0 113 -49.5 164t-150.5 51q-65 0 -162 -7t-161 -15l-64 -7l-6 100q235 41 401 41q159 0 236 -80.5t77 -246.5v-545q8 -75 133 -90l-6 -98q-158 0 -231 81q-22 -9 -59 -23t-138.5 -37t-187.5 -23q-136 0 -208.5 78.5 t-72.5 230.5zM221 291q0 -99 43 -152t127 -53q72 0 160 17.5t140 34.5l52 18v370l-333 -34q-101 -9 -145 -58t-44 -143zM256 1413l45 109l426 -195l-41 -96z" />
<glyph unicode="&#xe1;" horiz-adv-x="1069" d="M94 289q0 141 72.5 212.5t228.5 86.5l348 35v92q0 113 -49.5 164t-150.5 51q-65 0 -162 -7t-161 -15l-64 -7l-6 100q235 41 401 41q159 0 236 -80.5t77 -246.5v-545q8 -75 133 -90l-6 -98q-158 0 -231 81q-22 -9 -59 -23t-138.5 -37t-187.5 -23q-136 0 -208.5 78.5 t-72.5 230.5zM221 291q0 -99 43 -152t127 -53q72 0 160 17.5t140 34.5l52 18v370l-333 -34q-101 -9 -145 -58t-44 -143zM258 1327l426 195l47 -113l-430 -182z" />
<glyph unicode="&#xe2;" horiz-adv-x="1069" d="M94 289q0 141 72.5 212.5t228.5 86.5l348 35v92q0 113 -49.5 164t-150.5 51q-65 0 -162 -7t-161 -15l-64 -7l-6 100q235 41 401 41q159 0 236 -80.5t77 -246.5v-545q8 -75 133 -90l-6 -98q-158 0 -231 81q-22 -9 -59 -23t-138.5 -37t-187.5 -23q-136 0 -208.5 78.5 t-72.5 230.5zM197 1219l254 290h98l254 -290h-139l-162 184l-166 -184h-139zM221 291q0 -99 43 -152t127 -53q72 0 160 17.5t140 34.5l52 18v370l-333 -34q-101 -9 -145 -58t-44 -143z" />
<glyph unicode="&#xe3;" horiz-adv-x="1069" d="M94 289q0 141 73 213t228 86l348 35v92q0 211 -196 211q-67 0 -164 -8t-161 -16l-64 -7l-6 109q239 38 399 38t237.5 -79.5t77.5 -247.5v-535q5 -77 131 -92l-6 -106q-85 0 -139 17.5t-90 59.5q-21 -9 -57.5 -22t-140.5 -35t-197 -22q-129 0 -201 80t-72 229zM174 1378 q11 12 30.5 29.5t67 46.5t82.5 29q50 0 161.5 -51.5t139.5 -51.5q18 0 52.5 20.5t60.5 41.5l25 20l28 -96q-10 -11 -27.5 -27.5t-61.5 -43.5t-77 -27q-47 0 -160 52t-143 52q-21 0 -57.5 -22.5t-62.5 -45.5l-27 -22zM221 291q0 -97 42 -150t118 -53q77 0 167.5 17.5 t142.5 34.5l52 18v362l-331 -31q-191 -16 -191 -198z" />
<glyph unicode="&#xe4;" horiz-adv-x="1069" d="M94 289q0 141 73 213t228 86l348 35v92q0 211 -196 211q-67 0 -164 -8t-161 -16l-64 -7l-6 109q239 38 399 38t237.5 -79.5t77.5 -247.5v-535q5 -77 131 -92l-6 -106q-85 0 -139 17.5t-90 59.5q-21 -9 -57.5 -22t-140.5 -35t-197 -22q-129 0 -201 80t-72 229zM221 291 q0 -97 42 -150t118 -53q77 0 167.5 17.5t142.5 34.5l52 18v362l-331 -31q-191 -16 -191 -198zM256 1290v162h119v-162h-119zM657 1290v162h119v-162h-119z" />
<glyph unicode="&#xe5;" horiz-adv-x="1069" d="M94 289q0 141 72.5 212.5t228.5 86.5l348 35v92q0 113 -49.5 164t-150.5 51q-65 0 -162 -7t-161 -15l-64 -7l-6 100q235 41 401 41q159 0 236 -80.5t77 -246.5v-545q8 -75 133 -90l-6 -98q-158 0 -231 81q-22 -9 -59 -23t-138.5 -37t-187.5 -23q-136 0 -208.5 78.5 t-72.5 230.5zM221 291q0 -99 43 -152t127 -53q72 0 160 17.5t140 34.5l52 18v370l-333 -34q-101 -9 -145 -58t-44 -143zM317 1325q0 86 59.5 145.5t147.5 59.5q86 0 145.5 -59.5t59.5 -145.5q0 -88 -59.5 -147.5t-145.5 -59.5q-88 0 -147.5 59.5t-59.5 147.5zM414 1325 q0 -47 32 -81t78 -34t78.5 34t32.5 81q0 46 -32.5 79.5t-78.5 33.5q-45 0 -77.5 -33.5t-32.5 -79.5z" />
<glyph unicode="&#xe6;" horiz-adv-x="1695" d="M111 289q0 85 20.5 140t70 88.5t113 50t168.5 28.5l277 27v92q0 211 -197 211q-68 0 -165 -5t-160 -11l-64 -5l-4 111q237 26 397 26q222 0 279 -165q101 165 334 165q202 0 302.5 -115t100.5 -368l-6 -98h-696q2 -189 66 -279t220 -90q67 0 160 5t153 9l60 5l4 -103 q-229 -28 -389 -28q-205 0 -299 114l-70 -31q-27 -12 -67 -26.5t-141 -35.5t-195 -21q-134 0 -203 78.5t-69 230.5zM238 291q0 -99 41.5 -151t117.5 -52q74 0 174 21t149.5 37t82.5 28q-47 112 -47 346l-330 -31q-99 -9 -143.5 -55.5t-44.5 -142.5zM881 563h577 q0 199 -66.5 285t-211.5 86q-299 0 -299 -371z" />
<glyph unicode="&#xe7;" horiz-adv-x="894" d="M111 530q0 280 96 396t325 116q39 0 106 -6t114 -12l47 -6l-4 -109q-164 19 -242 19q-182 0 -249.5 -87.5t-67.5 -310.5q0 -126 12 -203t46.5 -132.5t96.5 -78t162 -22.5q35 0 96 5t105 9l43 5l6 -109q-185 -24 -273 -24h-4v-86q119 0 171.5 -32t52.5 -122 q0 -87 -48.5 -129.5t-134.5 -42.5q-40 0 -83 3t-66 6l-23 3l4 82q85 -6 146 -6q92 0 92 84q0 76 -92 76h-96v168q-194 17 -266 139.5t-72 406.5z" />
<glyph unicode="&#xe8;" horiz-adv-x="1032" d="M109 508q0 534 421 534q203 0 303.5 -115t100.5 -368l-4 -98h-697q0 -189 64.5 -279t220.5 -90q67 0 160.5 5t153.5 9l61 5l4 -103q-231 -28 -391 -28q-113 1 -190.5 34.5t-122.5 102.5t-64.5 163.5t-19.5 227.5zM233 563h578q0 200 -67 285.5t-214 85.5q-145 0 -221 -89 t-76 -282zM242 1405l45 108l426 -194l-41 -96z" />
<glyph unicode="&#xe9;" horiz-adv-x="1032" d="M109 508q0 534 421 534q203 0 303.5 -115t100.5 -368l-4 -98h-697q0 -189 64.5 -279t220.5 -90q67 0 160.5 5t153.5 9l61 5l4 -103q-231 -28 -391 -28q-113 1 -190.5 34.5t-122.5 102.5t-64.5 163.5t-19.5 227.5zM233 563h578q0 200 -67 285.5t-214 85.5q-145 0 -221 -89 t-76 -282zM324 1327l426 195l47 -113l-430 -182z" />
<glyph unicode="&#xea;" horiz-adv-x="1032" d="M109 508q0 534 421 534q203 0 303.5 -115t100.5 -368l-4 -98h-697q0 -189 64.5 -279t220.5 -90q67 0 160.5 5t153.5 9l61 5l4 -103q-231 -28 -391 -28q-113 1 -190.5 34.5t-122.5 102.5t-64.5 163.5t-19.5 227.5zM233 563h578q0 200 -67 285.5t-214 85.5q-145 0 -221 -89 t-76 -282zM238 1219l254 290h98l254 -290h-139l-162 184l-166 -184h-139z" />
<glyph unicode="&#xeb;" horiz-adv-x="1032" d="M109 508q0 534 423 534q203 0 303.5 -115t100.5 -368l-6 -98h-694q0 -189 64 -279t220 -90q67 0 160.5 5t153.5 9l61 5l4 -103q-231 -28 -391 -28q-114 1 -192 34.5t-123 102.5t-64.5 163.5t-19.5 227.5zM233 563h578q0 200 -66 285.5t-213 85.5q-145 0 -221.5 -89 t-77.5 -282zM266 1290v162h119v-162h-119zM668 1290v162h120v-162h-120z" />
<glyph unicode="&#xec;" horiz-adv-x="534" d="M27 1413l45 109l426 -195l-41 -96zM207 0v1024h123v-1024h-123z" />
<glyph unicode="&#xed;" horiz-adv-x="534" d="M88 1327l426 195l47 -113l-430 -182zM207 0v1024h123v-1024h-123z" />
<glyph unicode="&#xee;" horiz-adv-x="538" d="M-39 1219l254 290h98l254 -290h-139l-162 184l-166 -184h-139zM207 0v1024h123v-1024h-123z" />
<glyph unicode="&#xef;" horiz-adv-x="534" d="M0 1290v162h121v-162h-121zM207 0v1024h123v-1024h-123zM403 1290v162h119v-162h-119z" />
<glyph unicode="&#xf0;" d="M90 449q0 194 116 311t310 117q69 0 158 -20t144 -40l54 -20q-13 288 -319 458l-231 -161l-58 80l189 131q-110 47 -248 84l31 104q197 -50 325 -111l205 144l57 -80l-166 -117q344 -206 344 -606q0 -272 -47.5 -433.5t-147 -234.5t-265.5 -73q-214 0 -332.5 121.5 t-118.5 345.5zM219 449q0 -169 82.5 -261t239.5 -92q122 0 192.5 55t104 182.5t34.5 350.5q-23 9 -60.5 22.5t-131 35.5t-158.5 22q-140 0 -221.5 -88t-81.5 -227z" />
<glyph unicode="&#xf1;" horiz-adv-x="1173" d="M195 0v1024h122v-74q20 10 53.5 25.5t121.5 41t157 25.5q85 0 143.5 -17t98 -52t61 -98t30.5 -143t9 -200v-532h-123v530q0 96 -5 157t-19 112t-40.5 77.5t-67 40t-101.5 13.5q-68 0 -147.5 -21.5t-125.5 -42.5l-45 -22v-844h-122zM283 1378q11 12 30.5 29.5t67 46.5 t82.5 29q50 0 161.5 -51.5t139.5 -51.5q18 0 52.5 20.5t59.5 41.5l25 20l29 -96q-10 -11 -27.5 -27.5t-61.5 -43.5t-77 -27q-47 0 -160 52t-143 52q-21 0 -58 -22.5t-63 -45.5l-27 -22z" />
<glyph unicode="&#xf2;" horiz-adv-x="1079" d="M111 528q0 274 98.5 394t333.5 120q222 0 324 -123.5t102 -392.5q0 -145 -18.5 -241.5t-66 -168t-131 -104t-210.5 -32.5q-129 0 -212.5 30t-132.5 99.5t-68 168.5t-19 250zM236 528q0 -100 6.5 -166t25.5 -122t53 -86.5t88.5 -47t133.5 -16.5q56 0 99.5 9t75 25.5t54 45 t36 61.5t21.5 81t10.5 97t2.5 117q0 218 -70.5 312t-228.5 94q-176 0 -241.5 -87t-65.5 -317zM297 1413l45 109l426 -195l-41 -96z" />
<glyph unicode="&#xf3;" horiz-adv-x="1079" d="M111 528q0 274 98.5 394t333.5 120q222 0 324 -123.5t102 -392.5q0 -145 -18.5 -241.5t-66 -168t-131 -104t-210.5 -32.5q-129 0 -212.5 30t-132.5 99.5t-68 168.5t-19 250zM236 528q0 -100 6.5 -166t25.5 -122t53 -86.5t88.5 -47t133.5 -16.5q56 0 99.5 9t75 25.5t54 45 t36 61.5t21.5 81t10.5 97t2.5 117q0 218 -70.5 312t-228.5 94q-176 0 -241.5 -87t-65.5 -317zM324 1327l426 195l47 -113l-430 -182z" />
<glyph unicode="&#xf4;" horiz-adv-x="1079" d="M111 528q0 274 98.5 394t333.5 120q222 0 324 -123.5t102 -392.5q0 -145 -18.5 -241.5t-66 -168t-131 -104t-210.5 -32.5q-129 0 -212.5 30t-132.5 99.5t-68 168.5t-19 250zM233 1219l254 290h99l254 -290h-140l-161 184l-166 -184h-140zM236 528q0 -100 6.5 -166 t25.5 -122t53 -86.5t88.5 -47t133.5 -16.5q56 0 99.5 9t75 25.5t54 45t36 61.5t21.5 81t10.5 97t2.5 117q0 218 -70.5 312t-228.5 94q-176 0 -241.5 -87t-65.5 -317z" />
<glyph unicode="&#xf5;" horiz-adv-x="1079" d="M111 528q0 274 98.5 394t333.5 120q222 0 324 -123.5t102 -392.5q0 -145 -18.5 -241.5t-66 -168t-131 -104t-210.5 -32.5q-129 0 -212.5 30t-132.5 99.5t-68 168.5t-19 250zM215 1378q11 12 30.5 29.5t67 46.5t82.5 29q50 0 161.5 -51.5t139.5 -51.5q18 0 52.5 20.5 t59.5 41.5l26 20l28 -96q-10 -11 -27.5 -27.5t-62 -43.5t-78.5 -27q-47 0 -159 52t-142 52q-21 0 -58 -22.5t-64 -45.5l-27 -22zM236 528q0 -100 6.5 -166t25.5 -122t53 -86.5t88.5 -47t133.5 -16.5q56 0 99.5 9t75 25.5t54 45t36 61.5t21.5 81t10.5 97t2.5 117 q0 218 -70.5 312t-228.5 94q-176 0 -241.5 -87t-65.5 -317z" />
<glyph unicode="&#xf6;" horiz-adv-x="1079" d="M111 528q0 274 98.5 394t333.5 120q222 0 324 -123.5t102 -392.5q0 -145 -18.5 -241.5t-66 -168t-131 -104t-210.5 -32.5q-129 0 -212.5 30t-132.5 99.5t-68 168.5t-19 250zM236 528q0 -100 6.5 -166t25.5 -122t53 -86.5t88.5 -47t133.5 -16.5q56 0 99.5 9t75 25.5t54 45 t36 61.5t21.5 81t10.5 97t2.5 117q0 218 -70.5 312t-228.5 94q-176 0 -241.5 -87t-65.5 -317zM270 1290v162h121v-162h-121zM674 1290v162h119v-162h-119z" />
<glyph unicode="&#xf7;" d="M154 719v123h583v-123h-583zM283 858v186h321v-186h-321zM381 238v190h129v-190h-129z" />
<glyph unicode="&#xf8;" horiz-adv-x="1079" d="M111 528q0 274 98.5 394t333.5 120q79 0 157 -20l88 217l89 -31l-93 -221q95 -55 140 -168.5t45 -292.5q0 -145 -18.5 -241.5t-66 -168t-131 -104t-210.5 -32.5q-89 0 -164 16l-92 -227l-88 30l94 228q-101 54 -141.5 173t-40.5 328zM236 528q0 -166 22 -257t84 -134 l315 778q-56 17 -114 17q-176 0 -241.5 -87t-65.5 -317zM420 102q52 -12 123 -12q56 0 99.5 9t75 25.5t54 45t36 61.5t21.5 81t10.5 97t2.5 117q0 263 -107 348z" />
<glyph unicode="&#xf9;" horiz-adv-x="1142" d="M174 489v535h121v-530q0 -99 5 -161t18.5 -113t40.5 -77t68 -39.5t103 -13.5q68 0 143.5 21.5t116.5 42.5l41 22v848h121v-1024h-121v72q-18 -10 -48.5 -25.5t-114 -41t-152.5 -25.5q-72 0 -124 10.5t-91 36.5t-63 63t-38.5 96.5t-20 130.5t-5.5 172zM270 1409l49 111 l426 -195l-47 -102z" />
<glyph unicode="&#xfa;" horiz-adv-x="1142" d="M174 489v535h121v-530q0 -99 5 -161t18.5 -113t40.5 -77t68 -39.5t103 -13.5q68 0 143.5 21.5t116.5 42.5l41 22v848h121v-1024h-121v72q-18 -10 -48.5 -25.5t-114 -41t-152.5 -25.5q-72 0 -124 10.5t-91 36.5t-63 63t-38.5 96.5t-20 130.5t-5.5 172zM350 1327l426 195 l47 -113l-430 -182z" />
<glyph unicode="&#xfb;" horiz-adv-x="1142" d="M174 489v535h121v-530q0 -99 5 -161t18.5 -113t40.5 -77t68 -39.5t103 -13.5q68 0 143.5 21.5t116.5 42.5l41 22v848h121v-1024h-121v72q-18 -10 -48.5 -25.5t-114 -41t-152.5 -25.5q-72 0 -124 10.5t-91 36.5t-63 63t-38.5 96.5t-20 130.5t-5.5 172zM248 1219l254 290 h98l254 -290h-139l-162 184l-166 -184h-139z" />
<glyph unicode="&#xfc;" horiz-adv-x="1142" d="M174 489v535h121v-530q0 -99 5 -161t18.5 -113t40.5 -77t68 -39.5t103 -13.5q68 0 143.5 21.5t116.5 42.5l41 22v848h121v-1024h-121v72q-18 -10 -48.5 -25.5t-114 -41t-152.5 -25.5q-72 0 -124 10.5t-91 36.5t-63 63t-38.5 96.5t-20 130.5t-5.5 172zM322 1290v162h118 v-162h-118zM723 1290v162h119v-162h-119z" />
<glyph unicode="&#xfd;" horiz-adv-x="983" d="M45 1024h125l272 -907h74l275 907h124l-442 -1485h-123l135 461h-139zM301 1327l426 195l47 -113l-430 -182z" />
<glyph unicode="&#xfe;" horiz-adv-x="1101" d="M254 -461v1940h123v-508q18 8 48.5 20t115 31.5t155.5 19.5q205 0 285 -117.5t80 -394.5q0 -154 -21.5 -253.5t-76.5 -168.5t-147 -98.5t-234 -29.5q-62 0 -205 10v-451h-123zM377 102q144 -12 205 -12q76 0 131.5 11t94.5 36.5t63.5 59t38.5 85.5t19 109t5 137 q0 219 -52.5 310.5t-195.5 91.5q-68 0 -145.5 -16.5t-120.5 -33.5l-43 -16v-762z" />
<glyph unicode="&#xff;" horiz-adv-x="985" d="M57 1024h125l273 -907h73l275 907h125l-443 -1485h-123l136 461h-140zM225 1290v162h121v-162h-121zM629 1290v162h119v-162h-119z" />
<glyph unicode="&#x152;" horiz-adv-x="1933" d="M123 707q0 151 15.5 264t53 205.5t99.5 151t156 89.5t221 31q168 0 301 -21h837v-122h-712v-512h589v-123h-589v-547h712v-125h-835q-189 -18 -303 -18q-131 0 -225.5 30.5t-156 87t-98 148.5t-51 201.5t-14.5 259.5zM254 709q0 -108 7 -188t24.5 -151t48 -118.5 t77.5 -82.5t113.5 -51t155.5 -16q85 0 289 17v1186q-264 22 -291 22q-103 0 -177 -25.5t-122 -72t-75.5 -125t-38.5 -171.5t-11 -224z" />
<glyph unicode="&#x153;" horiz-adv-x="1794" d="M121 528q0 274 99 394t335 120q280 0 365 -211q95 211 358 211q202 0 302.5 -115t100.5 -368l-6 -98h-694q0 -189 64.5 -279t220.5 -90q67 0 160.5 5t153.5 9l60 5l5 -103q-232 -28 -392 -28q-253 0 -338 188q-42 -98 -127 -143t-233 -45q-104 0 -177.5 20.5t-123.5 60.5 t-79.5 107.5t-41.5 153.5t-12 206zM248 528q0 -100 6.5 -166t25.5 -122t53 -86.5t88.5 -47t133.5 -16.5q78 0 131.5 18t86.5 50t51 89t24 120t6 159q0 217 -71 311.5t-228 94.5q-176 0 -241.5 -87t-65.5 -317zM979 563h577q0 200 -65.5 285.5t-212.5 85.5q-299 0 -299 -371z " />
<glyph unicode="&#x178;" horiz-adv-x="1122" d="M43 1427h141l379 -673l373 673h141l-450 -815v-612h-127v612zM287 1694v161h121v-161h-121zM702 1694v161h119v-161h-119z" />
<glyph unicode="&#x2c6;" horiz-adv-x="466" d="M-45 1219l254 290h98l254 -290h-139l-162 184l-166 -184h-139z" />
<glyph unicode="&#x2dc;" horiz-adv-x="466" d="M-72 1378q12 12 31 29.5t67 46.5t83 29q50 0 161.5 -51.5t139.5 -51.5q18 0 52.5 20.5t59.5 41.5l25 20l28 -96q-10 -11 -27.5 -27.5t-61 -43.5t-76.5 -27q-47 0 -160.5 52t-143.5 52q-21 0 -57.5 -22.5t-62.5 -45.5l-27 -22z" />
<glyph unicode="&#x2000;" horiz-adv-x="965" />
<glyph unicode="&#x2001;" horiz-adv-x="1931" />
<glyph unicode="&#x2002;" horiz-adv-x="965" />
<glyph unicode="&#x2003;" horiz-adv-x="1931" />
<glyph unicode="&#x2004;" horiz-adv-x="643" />
<glyph unicode="&#x2005;" horiz-adv-x="482" />
<glyph unicode="&#x2006;" horiz-adv-x="321" />
<glyph unicode="&#x2007;" horiz-adv-x="321" />
<glyph unicode="&#x2008;" horiz-adv-x="241" />
<glyph unicode="&#x2009;" horiz-adv-x="386" />
<glyph unicode="&#x200a;" horiz-adv-x="107" />
<glyph unicode="&#x2010;" horiz-adv-x="901" d="M127 516v119h645v-119h-645z" />
<glyph unicode="&#x2011;" horiz-adv-x="901" d="M127 516v119h645v-119h-645z" />
<glyph unicode="&#x2012;" horiz-adv-x="901" d="M127 516v119h645v-119h-645z" />
<glyph unicode="&#x2013;" horiz-adv-x="1024" d="M0 496v114h1024v-114h-1024z" />
<glyph unicode="&#x2014;" horiz-adv-x="2048" d="M0 496v114h2048v-114h-2048z" />
<glyph unicode="&#x2018;" horiz-adv-x="348" d="M45 1057l105 432h110l-86 -432h-129z" />
<glyph unicode="&#x2019;" horiz-adv-x="348" d="M86 1079l86 432h129l-104 -432h-111z" />
<glyph unicode="&#x201a;" horiz-adv-x="374" d="M68 -197l104 433h111l-86 -433h-129z" />
<glyph unicode="&#x201c;" horiz-adv-x="665" d="M53 1057l103 432h112l-86 -432h-129zM346 1057l103 432h112l-86 -432h-129z" />
<glyph unicode="&#x201d;" horiz-adv-x="718" d="M129 1053l86 432h129l-102 -432h-113zM440 1053l86 432h129l-102 -432h-113z" />
<glyph unicode="&#x201e;" horiz-adv-x="698" d="M88 -197l86 433h129l-102 -433h-113zM399 -197l86 433h129l-102 -433h-113z" />
<glyph unicode="&#x2022;" d="M289 219v590h508v-590h-508z" />
<glyph unicode="&#x2026;" horiz-adv-x="1523" d="M193 0v207h135v-207h-135zM713 0v207h135v-207h-135zM1233 0v207h135v-207h-135z" />
<glyph unicode="&#x202f;" horiz-adv-x="386" />
<glyph unicode="&#x2039;" horiz-adv-x="589" d="M82 459v104l371 283v-129l-265 -203l265 -223v-131z" />
<glyph unicode="&#x203a;" horiz-adv-x="589" d="M137 164v133l264 223l-264 201v129l371 -283v-104z" />
<glyph unicode="&#x205f;" horiz-adv-x="482" />
<glyph unicode="&#x20ac;" horiz-adv-x="1118" d="M43 473v107h121v206h-121v107h129q9 101 29 176t57.5 136.5t93.5 99.5t136 58.5t186 20.5q84 0 174 -9.5t138 -18.5l48 -10l-6 -117q-192 33 -344 33q-102 0 -172.5 -22.5t-113.5 -71.5t-64.5 -114.5t-30.5 -162.5h586v-105h-594v-206l594 -2v-105h-586 q9 -98 30.5 -163.5t64.5 -114t113.5 -71t174.5 -22.5q60 0 145.5 8t140.5 16l56 9l6 -117q-198 -38 -360 -38q-133 0 -225.5 30t-150 94t-86.5 152.5t-40 216.5h-129z" />
<glyph unicode="&#x2122;" d="M14 1196v88h410v-88h-150v-516h-94v516h-166zM489 678v606h132l149 -453l156 453h129v-606h-90v485l-154 -458h-82l-147 458v-485h-93z" />
<glyph unicode="&#xe000;" horiz-adv-x="1024" d="M0 0v1024h1024v-1024h-1024z" />
</font>
</defs>
</svg>
