<?xml version="1.0" standalone="no"?>
<!DOCTYPE svg PUBLIC "-//W3C//DTD SVG 1.1//EN" "http://www.w3.org/Graphics/SVG/1.1/DTD/svg11.dtd" >
<svg xmlns="http://www.w3.org/2000/svg">
<metadata></metadata>
<defs>
<font id="titilliumtext25l1_wt" horiz-adv-x="1085" >
<font-face units-per-em="2048" ascent="1536" descent="-512" />
<missing-glyph horiz-adv-x="481" />
<glyph horiz-adv-x="2048" />
<glyph horiz-adv-x="2048" />
<glyph unicode="&#xd;" horiz-adv-x="2048" />
<glyph unicode=" "  horiz-adv-x="481" />
<glyph unicode="&#x09;" horiz-adv-x="481" />
<glyph unicode="&#xa0;" horiz-adv-x="481" />
<glyph unicode="!" d="M512 0v164h82v-164h-82zM516 436v996h72v-996h-72z" />
<glyph unicode="&#x22;" horiz-adv-x="573" d="M102 1026v410h72v-410h-72zM391 1026v410h72v-410h-72z" />
<glyph unicode="#" d="M27 389v66h245v463h-245v65h245v389h74v-389h385v389h74v-389h246v-65h-246v-463h246v-66h-246v-389h-74v389h-385v-389h-74v389h-245zM346 455h385v463h-385v-463z" />
<glyph unicode="$" d="M129 1040q0 182 108.5 262t313.5 80q38 0 61 -2l31 238h72l-33 -242q56 -4 120 -10t100 -10l36 -4l-8 -68q-137 17 -256 27l-74 -578q96 -17 158 -37.5t112.5 -58t73.5 -96.5t23 -146q0 -221 -102 -315t-312 -94q-33 0 -51 2l-29 -234q-72 7 -72 15l29 223 q-62 4 -135 10.5t-115 11.5l-43 4l8 68q158 -21 293 -29l82 617q-69 11 -116 22.5t-95 30t-78 44t-55 62.5t-36 88.5t-11 118.5zM203 1044q0 -56 8.5 -98t28 -72t43.5 -50.5t64 -35.5t80 -24t101 -19l76 570q-20 2 -53 2q-172 0 -260 -65t-88 -208zM512 53h41 q171 0 255.5 79t84.5 257q0 133 -67.5 189.5t-235.5 85.5z" />
<glyph unicode="%" d="M59 1165q0 144 52.5 208.5t164.5 64.5q111 0 164.5 -65t53.5 -210q0 -146 -54.5 -214t-163.5 -68q-110 0 -163.5 68t-53.5 216zM131 1165q0 -111 32 -165t113 -54t113.5 53.5t32.5 163.5q0 109 -32 159t-114 50q-80 0 -112.5 -50t-32.5 -157zM381 12l295 1424l74 -15 l-295 -1423zM635 285q0 144 52.5 208t164.5 64q111 0 164 -64.5t53 -209.5q0 -146 -54 -214.5t-163 -68.5q-110 0 -163.5 68.5t-53.5 216.5zM707 285q0 -111 32 -165t113 -54t113 53.5t32 163.5q0 109 -31.5 159t-113.5 50q-80 0 -112.5 -50t-32.5 -157z" />
<glyph unicode="&#x26;" horiz-adv-x="1433" d="M119 426q0 95 19.5 162t63 114.5t102.5 78.5t149 57q-66 72 -85.5 133.5t-19.5 154.5q0 134 80.5 214.5t233.5 80.5q160 0 236.5 -79.5t76.5 -217.5q0 -148 -77.5 -230t-260.5 -142l383 -379q42 118 63 299h72q-28 -222 -80 -353l287 -280l-49 -53l-269 266 q-70 -142 -181.5 -206t-272.5 -64q-132 0 -225 30t-146 90t-76.5 138.5t-23.5 185.5zM190 428q0 -190 94 -284.5t310 -94.5q140 0 238 61.5t159 192.5l-485 481q-177 -47 -246.5 -122.5t-69.5 -233.5zM420 1126q0 -75 18.5 -136t73.5 -116l74 -73q90 31 146.5 59t97 66 t57 85.5t16.5 114.5q0 230 -241 230q-119 0 -180.5 -58t-61.5 -172z" />
<glyph unicode="'" horiz-adv-x="204" d="M61 1430h82l-10 -431h-67z" />
<glyph unicode="(" horiz-adv-x="532" d="M115 616q0 115 20.5 252t49.5 250.5t58 210.5t49 152l21 55h72q-8 -22 -21 -60t-46.5 -151t-59.5 -219.5t-47 -244t-21 -245.5q0 -107 20 -236t49 -237t57.5 -200.5t48.5 -145.5l20 -53h-72q-8 19 -21.5 52.5t-47.5 135.5t-60 201t-47.5 233.5t-21.5 249.5z" />
<glyph unicode=")" horiz-adv-x="532" d="M115 -256q8 21 21 57.5t46.5 145.5t59 212.5t46.5 237t21 240.5q0 108 -20 240.5t-48.5 244.5t-57 208t-48.5 151l-20 55h71q8 -20 21.5 -55.5t48 -142t60.5 -209.5t47.5 -240t21.5 -252t-20.5 -249t-49.5 -243.5t-58.5 -203t-50.5 -145.5l-20 -52h-71z" />
<glyph unicode="*" d="M279 938l225 164l-223 164l41 55l225 -166l86 264l65 -20l-86 -266h277v-70h-281l86 -264l-65 -21l-86 266l-226 -161z" />
<glyph unicode="+" horiz-adv-x="839" d="M-100 479v70h475v475h74v-475h479v-70h-479v-479h-74v479h-475z" />
<glyph unicode="," horiz-adv-x="348" d="M96 -252l86 430h82l-104 -430h-64z" />
<glyph unicode="-" horiz-adv-x="901" d="M123 541v69h655v-69h-655z" />
<glyph unicode="." horiz-adv-x="507" d="M201 0v164h82v-164h-82z" />
<glyph unicode="/" d="M223 25l568 1413l67 -29l-567 -1411z" />
<glyph unicode="0" d="M70 645q0 173 21 300.5t59 209t98 130.5t130 68t163 19q97 0 168 -19t131 -67.5t96.5 -130t57 -208t20.5 -300.5q0 -154 -21.5 -269.5t-60 -190.5t-98.5 -121t-130 -65t-161 -19q-76 0 -136.5 13t-115 42t-94.5 79.5t-69 123t-43.5 174t-14.5 231.5zM147 643 q0 -143 18 -247t50 -170t83 -105.5t109 -54.5t136 -15t136 15.5t108 55t82 106t49.5 171.5t17.5 248q0 195 -23.5 323.5t-75 201.5t-121.5 102t-175 29q-82 0 -141.5 -17.5t-109 -61t-80 -118t-47 -189.5t-16.5 -274z" />
<glyph unicode="1" d="M184 1073l418 279h74v-1352h-74v1272l-383 -258z" />
<glyph unicode="2" d="M125 0v70l465 489q58 61 88.5 95t71.5 86.5t61 91.5t34.5 90.5t14.5 103.5q0 150 -85.5 213.5t-258.5 63.5q-69 0 -161.5 -13.5t-150.5 -27.5l-57 -13l-10 70q21 6 58 15t138 23.5t185 14.5q209 0 314.5 -80t105.5 -266q0 -73 -17 -134.5t-56.5 -123t-81 -110 t-113.5 -123.5l-445 -463h756v-72h-856z" />
<glyph unicode="3" d="M106 29l13 69q215 -47 432 -47q179 1 263.5 80t84.5 236q0 88 -26 150t-74.5 95t-103.5 48.5t-128 19.5h-274v70h272q44 0 93.5 17.5t95.5 50.5t76 90t30 128q0 146 -72.5 206.5t-252.5 60.5q-90 0 -187.5 -11.5t-149.5 -23.5l-53 -11l-12 70q194 45 399 45 q218 0 312 -81t94 -257q0 -71 -24 -129t-56.5 -90.5t-68.5 -54.5t-57 -29.5t-25 -7.5q65 -17 108.5 -38.5t83 -59.5t59 -101t19.5 -151q0 -198 -105 -294.5t-321 -96.5q-98 0 -209.5 12t-173.5 24z" />
<glyph unicode="4" d="M68 291v61l419 1000h80l-411 -992h622v449h74v-449h201v-69h-201v-291h-74v291h-710z" />
<glyph unicode="5" d="M119 35l10 69q226 -49 416 -49q170 0 270 102.5t100 293.5q0 92 -26 156.5t-75 100t-109.5 51t-139.5 15.5q-82 0 -173.5 -28t-141.5 -56l-51 -28l-70 8l39 682h762v-72h-692l-37 -541q7 4 20 11t53.5 25.5t81.5 32t99.5 25t111.5 11.5q99 0 175 -20.5t133.5 -65.5 t87.5 -122.5t30 -184.5q0 -231 -117.5 -348t-328.5 -117q-91 0 -198 12t-169 24z" />
<glyph unicode="6" d="M84 690q0 344 133.5 513t370.5 169q76 0 163 -5.5t136 -10.5l49 -6l-8 -68q-168 21 -340 21q-202 0 -313.5 -146t-112.5 -424l23 9q23 10 64 24.5t89.5 29t107.5 25t109 10.5q221 0 333.5 -101.5t112.5 -303.5q0 -210 -117.5 -327t-340.5 -117q-233 0 -346 183.5 t-113 524.5zM160 662q2 -137 24 -245t66.5 -192t118.5 -129t174 -45q186 0 283.5 96t97.5 279q0 168 -97.5 252t-273.5 84q-84 -3 -182 -28t-155 -48z" />
<glyph unicode="7" d="M121 1282v70h823v-133l-549 -1237l-71 28l542 1225v47h-745z" />
<glyph unicode="8" d="M49 344q0 82 19.5 143t60.5 103t85 68.5t112 54.5q-127 44 -190.5 118t-63.5 205q0 170 124.5 253t352.5 83t356.5 -83t128.5 -255q0 -132 -67.5 -206t-210.5 -115q143 -41 221 -120t78 -226q0 -89 -26.5 -157t-71 -110.5t-110.5 -69.5t-138 -37.5t-160 -10.5 q-83 0 -154 11t-136 37.5t-110.5 67t-72.5 103.5t-27 143zM129 346q0 -82 33 -141.5t93 -92t132 -47t162 -14.5q96 0 169.5 14.5t134 49t92.5 97.5t32 153q0 64 -18 112.5t-44 79t-72.5 55t-85 37t-100.5 27.5h-239q-70 -17 -120.5 -41t-90 -62t-59 -94.5t-19.5 -132.5z M150 1034q0 -120 64.5 -186.5t203.5 -104.5h239q149 36 223 103t74 186q0 145 -103.5 208t-301.5 63q-96 0 -167 -13.5t-124.5 -44.5t-80.5 -83.5t-27 -127.5z" />
<glyph unicode="9" d="M96 924q0 204 123.5 326t327.5 122q122 0 212 -49.5t145.5 -143.5t82.5 -222.5t27 -292.5q0 -191 -34 -324t-101.5 -211t-159.5 -112.5t-219 -34.5q-76 0 -163 5.5t-136 10.5l-49 6l8 68q168 -21 340 -21q218 0 326.5 135.5t111.5 427.5q-26 -10 -70 -25t-154 -40 t-190 -25q-213 0 -320.5 97t-107.5 303zM174 924q0 -172 88 -251t266 -79q72 0 175 23t170 46l67 23q-14 617 -393 617q-171 0 -272 -103.5t-101 -275.5z" />
<glyph unicode=":" horiz-adv-x="288" d="M158 0v164h82v-164h-82zM158 705v163h82v-163h-82z" />
<glyph unicode=";" horiz-adv-x="348" d="M76 -252l84 430h86l-107 -430h-63zM154 705v163h82v-163h-82z" />
<glyph unicode="&#x3c;" d="M129 602v74l711 469v-80l-645 -422l645 -444v-84q-641 436 -711 487z" />
<glyph unicode="=" d="M84 702v70h911v-70h-911zM86 356v70h911v-70h-911z" />
<glyph unicode="&#x3e;" d="M129 115v84l645 444l-645 422v80l711 -469v-74z" />
<glyph unicode="?" horiz-adv-x="790" d="M20 1397q229 55 340 55q204 0 307 -75t103 -249q0 -68 -22.5 -129.5t-58.5 -108t-79.5 -90t-87 -83t-79.5 -77.5t-58.5 -82.5t-22.5 -90.5v-78h-71v84q0 51 22.5 100.5t58.5 90t79 81.5t86.5 83.5t79.5 86.5t58.5 99t22.5 114q0 142 -83 199t-255 57q-44 0 -126 -14 t-142 -28l-61 -15zM287 2v164h82v-164h-82z" />
<glyph unicode="@" horiz-adv-x="2017" d="M123 535q0 258 56 438.5t172 290.5t282.5 159.5t398.5 49.5q234 0 398 -50t267 -156.5t150 -263t47 -378.5v-35q0 -173 -17.5 -290.5t-42 -180.5t-73.5 -94.5t-88.5 -38t-111.5 -6.5q-41 0 -64.5 1.5t-51.5 8.5t-44.5 20.5t-32.5 38t-27 60.5q-228 -127 -391 -127 q-26 0 -45.5 1t-49 6.5t-52 15.5t-50 28.5t-47.5 44t-40 65.5t-33 89t-21 117t-8 149q0 138 20 234.5t68.5 168.5t133 106.5t208.5 34.5q52 0 120 -14t110 -28l41 -13v37h71v-410q0 -109 1 -185t6 -139.5t9.5 -102t17 -68.5t23 -44t33 -22.5t41.5 -10t54 -1.5q31 0 50.5 1.5 t45.5 7t41.5 16t34.5 30t30.5 47.5t23.5 69t18 95t10 125t4 158v37q0 207 -41.5 351t-135 241.5t-243.5 142.5t-367 45q-218 0 -370 -44.5t-258 -146.5t-155.5 -269.5t-49.5 -411.5q0 -204 33 -352.5t96.5 -249.5t166 -162t232 -87t305.5 -26q36 0 109.5 5t128.5 10l55 5 l6 -67q-201 -19 -299 -19q-157 0 -278.5 18.5t-226 61.5t-177.5 114.5t-125.5 175.5t-77 246.5t-24.5 326.5zM676 492q0 -117 18 -202.5t44.5 -131t66 -72t72 -33t73.5 -6.5q164 0 377 123q-22 129 -22 444v308q-150 55 -271 55q-107 0 -178.5 -31t-110 -96t-54 -149.5 t-15.5 -208.5z" />
<glyph unicode="A" horiz-adv-x="1236" d="M72 0l440 1434h217l436 -1430h-73l-138 436h-671l-138 -440h-73zM303 510h631l-260 854h-111z" />
<glyph unicode="B" horiz-adv-x="1284" d="M211 0v1434h491q208 0 311 -85t103 -264q0 -273 -198 -346q253 -70 253 -338q0 -115 -30 -194.5t-89 -124t-134 -63.5t-177 -19h-530zM285 70h456q170 0 262.5 75t92.5 256q0 60 -15.5 108t-39 78.5t-59.5 52.5t-66.5 33t-72 17t-64.5 7t-54 1h-440v-628zM285 766h440 q164 0 239.5 79.5t75.5 239.5q0 147 -82 213t-256 66h-417v-598z" />
<glyph unicode="C" horiz-adv-x="1099" d="M119 711q0 120 7.5 210.5t27.5 179t56.5 149.5t92 108.5t137.5 70.5t189 23q87 0 181.5 -10t145.5 -20l52 -9l-7 -72q-206 41 -372 41q-81 0 -145 -16.5t-109 -44.5t-77.5 -75t-52 -98.5t-30.5 -125.5t-14.5 -144.5t-3.5 -166.5q0 -95 4 -166.5t15.5 -143t31.5 -122.5 t52.5 -96.5t78 -73t108 -43t142.5 -15.5q64 0 157 10.5t154 20.5l61 10l7 -69q-217 -41 -379 -41q-125 0 -215 33t-147 91.5t-90 152.5t-45.5 200.5t-12.5 251.5z" />
<glyph unicode="D" horiz-adv-x="1337" d="M211 0v1434h532q105 0 188 -38.5t137 -103t89.5 -155t50.5 -189.5t15 -211q0 -113 -15 -215.5t-50.5 -199t-89.5 -167t-137.5 -113t-187.5 -42.5h-532zM285 70h458q89 0 159.5 40.5t115 105.5t74 154t41.5 179.5t12 187.5t-12 183.5t-41.5 169.5t-74 142.5t-115 95.5 t-159.5 36h-458v-1294z" />
<glyph unicode="E" horiz-adv-x="1171" d="M211 0v1434h838v-70h-764v-592h641v-70h-641v-632h764v-70h-838z" />
<glyph unicode="F" horiz-adv-x="1153" d="M211 0v1434h840v-70h-766v-647h643v-70h-643v-647h-74z" />
<glyph unicode="G" horiz-adv-x="1263" d="M123 711q0 142 13.5 249.5t49.5 203t95.5 157t154.5 96.5t223 35q96 0 208.5 -13t177.5 -25l65 -13l-6 -72q-259 53 -445 53q-113 0 -195 -31.5t-132.5 -86t-80 -142t-40 -184t-10.5 -227.5t11.5 -227t41.5 -181.5t81 -138.5t132 -83t192 -30q64 0 155 10.5t156 20.5 t66 10v549h-307v70h381v-678q-289 -51 -451 -51q-125 0 -218 33t-153.5 92t-97.5 151.5t-52 201.5t-15 251z" />
<glyph unicode="H" horiz-adv-x="1425" d="M211 0v1434h74v-680h856v680h73v-1434h-73v684h-856v-684h-74z" />
<glyph unicode="I" horiz-adv-x="462" d="M195 0v1434h73v-1434h-73z" />
<glyph unicode="J" horiz-adv-x="622" d="M72 -80q74 0 105.5 1t72.5 11t53.5 27.5t28 55t18 88t2.5 133.5v1200h74q0 -216 1 -609t1 -612q0 -68 -4.5 -120.5t-17.5 -90.5t-24.5 -64.5t-40 -43.5t-47.5 -26.5t-63.5 -14t-72 -5t-86.5 -0.5v70z" />
<glyph unicode="K" horiz-adv-x="1222" d="M211 0v1434h74v-691h264l450 691h88l-473 -721l506 -713h-94l-473 674h-268v-674h-74z" />
<glyph unicode="L" d="M211 0v1434h74v-1364h698v-70h-772z" />
<glyph unicode="M" horiz-adv-x="1742" d="M211 0v1434h158l501 -1321l506 1321h156v-1434h-74v1364h-28l-510 -1321h-103l-504 1321h-28v-1364h-74z" />
<glyph unicode="N" horiz-adv-x="1406" d="M211 0v1434h174l682 -1364h55v1364h74v-1434h-174l-684 1364h-53v-1364h-74z" />
<glyph unicode="O" horiz-adv-x="1343" d="M123 711q0 147 15 257.5t52.5 204.5t99 153.5t157 92.5t225.5 33t225.5 -32.5t157 -92t99 -153t52.5 -204.5t15 -259q0 -155 -15 -267t-51.5 -203t-99 -146t-157 -84t-226.5 -29q-131 0 -226.5 31t-157.5 88t-99 149t-51.5 202t-14.5 259zM201 711q0 -138 11 -235 t41 -182t82.5 -135.5t136 -79t200.5 -28.5q99 0 172.5 17t125.5 54.5t85.5 88.5t53 129t27 165t7.5 206q0 134 -12 233.5t-43 185t-83.5 139t-135.5 83.5t-197 30q-115 0 -198 -29.5t-135.5 -82.5t-83.5 -139t-42.5 -185t-11.5 -235z" />
<glyph unicode="P" horiz-adv-x="1259" d="M211 0v1434h522q222 0 323 -104.5t101 -328.5q0 -475 -424 -475h-448v-526h-74zM285 596h448q346 0 346 405q0 188 -81 275.5t-265 87.5h-448v-768z" />
<glyph unicode="Q" horiz-adv-x="1343" d="M123 711q0 147 15 257.5t52.5 204.5t99 153.5t157 92.5t225.5 33t225.5 -32.5t157 -92t99 -153t52.5 -204.5t15 -259q0 -280 -54.5 -441t-193.5 -231l176 -287l-74 -35l-178 293q-98 -28 -225 -28q-131 0 -226.5 31t-157.5 88t-99 149t-51.5 202t-14.5 259zM201 711 q0 -138 11 -235t41 -182t82.5 -135.5t136 -79t200.5 -28.5q99 0 172.5 17t125.5 54.5t85.5 88.5t53 129t27 165t7.5 206q0 134 -12 233.5t-43 185t-83.5 139t-135.5 83.5t-197 30q-115 0 -198 -29.5t-135.5 -82.5t-83.5 -139t-42.5 -185t-11.5 -235z" />
<glyph unicode="R" horiz-adv-x="1290" d="M211 0v1434h514q216 0 321 -98.5t105 -311.5q0 -179 -69.5 -284.5t-227.5 -135.5l324 -604h-84l-320 594h-489v-594h-74zM285 664h440q191 0 269.5 92t78.5 268q0 178 -83.5 259t-264.5 81h-440v-700z" />
<glyph unicode="S" horiz-adv-x="1097" d="M109 1096q0 190 114 275t328 85q70 0 172 -8t169 -16l66 -9l-8 -71q-280 34 -399 34q-180 0 -272.5 -68t-92.5 -218q0 -47 5.5 -84t19 -66t28.5 -50.5t43 -39t53 -28.5t67.5 -21.5t77.5 -17t91 -15.5q88 -14 148 -29.5t115 -42t86.5 -64t50 -94t18.5 -132.5 q0 -232 -107 -331t-327 -99q-68 0 -177.5 8t-185.5 16l-75 8l8 72q283 -35 428 -35q180 0 269 84t89 271q0 63 -14 107.5t-39 75t-71 52t-99 34.5t-135 26q-52 8 -89.5 15t-79.5 17t-71 21.5t-60 28t-51.5 36.5t-39.5 47t-29.5 60t-17 74.5t-6.5 91.5z" />
<glyph unicode="T" horiz-adv-x="1024" d="M0 1364v70h1024v-70h-473v-1364h-74v1364h-477z" />
<glyph unicode="U" horiz-adv-x="1314" d="M184 401v1033h74v-1033q0 -186 100 -268t289 -82q203 0 306.5 81t103.5 269v1033h73v-1033q0 -223 -121.5 -321t-361.5 -98q-226 0 -344.5 98t-118.5 321z" />
<glyph unicode="V" horiz-adv-x="1185" d="M72 1434h73l394 -1364h118l383 1364h74l-397 -1434h-238z" />
<glyph unicode="W" horiz-adv-x="1785" d="M92 1434h72l293 -1364h78l317 1343h82l328 -1343h77l283 1364h72l-295 -1434h-197l-309 1317l-299 -1317h-197z" />
<glyph unicode="X" horiz-adv-x="1189" d="M82 0l463 711l-463 723h88l426 -668l424 668h88l-457 -723l457 -711h-88l-422 659l-428 -659h-88z" />
<glyph unicode="Y" horiz-adv-x="1105" d="M51 1434h84l420 -736l414 736h86l-463 -818v-616h-74v616z" />
<glyph unicode="Z" horiz-adv-x="1167" d="M123 -2v141l846 1176v49h-846v70h921v-144l-845 -1177v-45h845v-70h-921z" />
<glyph unicode="[" horiz-adv-x="614" d="M100 -252v1786h373v-66h-301v-1654h301v-66h-373z" />
<glyph unicode="\" d="M197 1407l71 29l617 -1407l-72 -29z" />
<glyph unicode="]" horiz-adv-x="614" d="M100 -186h301v1654h-301v66h373v-1786h-373v66z" />
<glyph unicode="^" d="M143 682l351 670h75l371 -670h-86l-324 596l-305 -596h-82z" />
<glyph unicode="_" horiz-adv-x="1064" d="M55 -70h877v-69h-877v69z" />
<glyph unicode="`" horiz-adv-x="440" d="M20 1436l33 63l393 -196l-30 -56z" />
<glyph unicode="a" horiz-adv-x="1060" d="M113 281q0 134 67 206.5t215 87.5l389 41v107q0 131 -56 190.5t-171 59.5q-67 0 -163.5 -8.5t-159.5 -17.5l-64 -9l-6 68q229 36 393 36q154 0 226.5 -79.5t72.5 -239.5v-590q8 -74 154 -86l-4 -63q-150 0 -211 86q-23 -10 -63.5 -24.5t-150 -39t-200.5 -24.5 q-128 0 -198 76t-70 223zM188 281q0 -112 50.5 -173t144.5 -61q86 0 186 21t157 42l58 21v420l-381 -39q-117 -12 -166 -67t-49 -164z" />
<glyph unicode="b" horiz-adv-x="1101" d="M207 0v1495h72v-534q19 9 52.5 22.5t126 36t173.5 22.5q84 0 143.5 -19.5t99.5 -57t63 -100.5t32.5 -141.5t9.5 -188.5q0 -100 -8 -174.5t-28.5 -139t-54.5 -107t-85.5 -73.5t-123.5 -45t-167 -14q-62 0 -138 4.5t-122 9.5zM279 59q159 -12 231 -12q73 0 129.5 10t98 28 t70.5 49.5t48 68t29 89.5t14 108t4 130q0 123 -10.5 201t-40 136.5t-83.5 84t-138 25.5q-81 0 -169 -20.5t-136 -40.5l-47 -21v-836z" />
<glyph unicode="c" horiz-adv-x="894" d="M123 535q0 282 94.5 394.5t325.5 112.5q35 0 96 -5t105 -10l44 -5l-4 -66q-163 21 -241 21q-195 0 -269.5 -98t-74.5 -344q0 -93 5 -159t19.5 -123.5t38.5 -94t62.5 -63t92 -37.5t126.5 -11q35 0 96 4.5t105 9.5l44 5l5 -66q-172 -18 -250 -18q-87 0 -150 12t-110.5 40.5 t-78 69.5t-48.5 105t-25.5 141.5t-7.5 184.5z" />
<glyph unicode="d" horiz-adv-x="1101" d="M123 498q0 138 20 234.5t68.5 168.5t133 106.5t208.5 34.5q117 0 270 -24v416h72v-1434h-72v86q-7 -4 -19.5 -11t-51.5 -25t-78.5 -32t-96 -25t-108.5 -11q-26 0 -45.5 1t-49 6.5t-52 15.5t-50 28.5t-47.5 44t-40 65.5t-33 89t-21 117t-8 149zM195 492q0 -117 18 -202.5 t44.5 -131t66 -72t72 -33t73.5 -6.5q49 0 103.5 11t97.5 26.5t78.5 31.5t55.5 27l19 11v798q-221 25 -270 25q-107 0 -178.5 -31t-110 -96t-54 -149.5t-15.5 -208.5z" />
<glyph unicode="e" horiz-adv-x="1038" d="M123 512q0 530 414 530q195 0 292 -116t97 -375v-68h-727q0 -223 69.5 -329.5t241.5 -106.5q64 0 157 4.5t155 9.5l61 5l4 -66q-229 -18 -379 -18q-90 1 -157 24.5t-110.5 66t-70 109.5t-37 146t-10.5 184zM199 549h651q0 231 -75 329.5t-238 98.5q-338 0 -338 -428z" />
<glyph unicode="f" horiz-adv-x="671" d="M72 958v66h141v125q0 111 14 181.5t47 111t79.5 56t119.5 15.5l189 -6v-63q-132 4 -189 4q-73 0 -111.5 -24t-57.5 -89t-19 -188v-123h331v-66h-331v-958h-72v958h-141z" />
<glyph unicode="g" horiz-adv-x="1032" d="M113 -164q0 49 10 85t37 68t51 52t76 57q-45 27 -45 133q0 14 15 54t31 73l15 33q-176 58 -176 311q0 342 350 342q49 0 103.5 -6.5t83.5 -13.5l30 -6l287 6v-72h-221q41 -38 61.5 -94t20.5 -156q0 -187 -87.5 -261t-285.5 -74q-61 0 -111 8q-47 -117 -47 -144 q0 -28 1.5 -43t12 -29.5t25.5 -20t50.5 -10.5t77 -6t114.5 -1q68 0 115.5 -4t91 -16t70.5 -32.5t47.5 -53t29 -79t8.5 -110.5q0 -166 -103.5 -240.5t-332.5 -74.5q-86 0 -148 7t-108 24t-74 40.5t-45 62t-23.5 83t-6.5 108.5zM186 -162q0 -78 12 -124t49 -79.5t101.5 -46 t171.5 -12.5q190 0 274.5 59t84.5 191q0 52 -6.5 89t-23.5 62.5t-37.5 40.5t-56.5 23.5t-73 11t-94 2.5l-248 6q-91 -63 -122.5 -107t-31.5 -116zM201 702q0 -143 58.5 -206.5t209.5 -63.5q162 0 229.5 59t67.5 211q0 87 -14.5 140.5t-51 84.5t-88.5 41.5t-137 10.5 q-141 0 -207.5 -62t-66.5 -215z" />
<glyph unicode="h" horiz-adv-x="1161" d="M207 0v1495h72v-532q20 9 55 22t129 35t172 22q71 0 122 -10t89 -34.5t61.5 -61t38 -96.5t20 -132t5.5 -176v-532h-72v528q0 111 -6 181t-21.5 126.5t-46 85t-76 42.5t-114.5 14q-81 0 -170 -20.5t-137 -40.5l-49 -21v-895h-72z" />
<glyph unicode="i" horiz-adv-x="440" d="M184 0v1024h72v-1024h-72zM184 1321v113h72v-113h-72z" />
<glyph unicode="j" horiz-adv-x="477" d="M-61 -383q175 95 228.5 170t53.5 225v1012h72v-1014q0 -173 -64.5 -264t-261.5 -192zM221 1321v113h72v-113h-72z" />
<glyph unicode="k" horiz-adv-x="989" d="M207 0v1495h72v-897h192l373 426h84l-393 -463l393 -561h-84l-373 526h-192v-526h-72z" />
<glyph unicode="l" horiz-adv-x="460" d="M195 0v1495h71v-1495h-71z" />
<glyph unicode="m" horiz-adv-x="1792" d="M207 0v1024h72v-82q6 4 18 11t49 24t74.5 30t91 24t102.5 11q61 0 119 -10q98 -17 148 -88q237 98 385 98q71 0 122 -10t89 -34.5t61.5 -61t38 -96.5t20 -132t5.5 -176v-532h-72v528q0 111 -6 181t-21.5 126.5t-46 85t-76 42.5t-114.5 14q-79 0 -167.5 -25t-131.5 -46 t-54 -29q37 -100 37 -345v-532h-71v528q0 92 -4 154.5t-14.5 116t-28.5 85t-48.5 54t-71 31t-98.5 8.5q-51 0 -104 -10.5t-93 -25.5t-72 -30.5t-49 -26.5l-17 -10v-874h-72z" />
<glyph unicode="n" horiz-adv-x="1173" d="M207 0v1024h72v-82q7 4 20.5 11t54.5 24t81.5 30t96.5 24t105 11q71 0 122 -10t89 -34.5t61.5 -61t38 -96.5t20 -132t5.5 -176v-532h-72v528q0 111 -6 181t-21.5 126.5t-46 85t-76 42.5t-114.5 14q-51 0 -106.5 -10.5t-98.5 -25.5t-79 -30.5t-55 -26.5l-19 -10v-874h-72z " />
<glyph unicode="o" horiz-adv-x="1077" d="M123 535q0 191 42.5 301t132.5 158t245 48q212 0 311.5 -119t99.5 -393q0 -121 -10.5 -205t-37 -152.5t-73 -108.5t-118 -61t-172.5 -21q-129 0 -209.5 27.5t-128 96t-65 168.5t-17.5 261zM199 535q0 -70 2.5 -122t9 -102.5t18 -85t29.5 -66t43.5 -51t60.5 -34.5 t79.5 -21t101.5 -6q75 0 129.5 12.5t91.5 41t60 64.5t35 95.5t16 120t4 149.5q0 241 -81 344t-255 103q-134 0 -207 -39.5t-105 -133.5t-32 -269z" />
<glyph unicode="p" horiz-adv-x="1105" d="M207 -471v1495h72v-86q7 4 19.5 11t51.5 25t78.5 32t96 25t108.5 11q185 0 267.5 -125t82.5 -391q0 -288 -99.5 -416t-334.5 -128q-138 0 -270 28v-481h-72zM279 76q163 -29 270 -29q197 0 277.5 110t80.5 375q0 237 -68.5 341t-205.5 104q-78 0 -166.5 -27.5 t-138.5 -54.5l-49 -27v-792z" />
<glyph unicode="q" horiz-adv-x="1101" d="M123 489q0 148 22.5 248.5t76 170.5t143.5 102t225 32q44 0 120 -4.5t130 -9.5l55 -4v-1495h-72v530q-17 -9 -46.5 -21.5t-116.5 -34t-168 -21.5q-202 0 -285.5 124t-83.5 383zM199 494q0 -227 65 -337t228 -110q81 0 163.5 20.5t124.5 40.5l43 21v836q-159 12 -231 12 q-96 0 -164.5 -19.5t-113 -56t-70 -97.5t-35.5 -134t-10 -176z" />
<glyph unicode="r" horiz-adv-x="724" d="M207 0v1024h72v-160q7 6 20.5 15.5t57 35t88 48t110.5 46t129 35.5v-69q-56 -11 -118.5 -33.5t-111.5 -46.5t-90 -46.5t-63 -36.5l-22 -15v-797h-72z" />
<glyph unicode="s" horiz-adv-x="989" d="M123 768q0 63 21 111.5t54.5 78.5t80 49.5t94 27t100.5 7.5q70 0 158 -7.5t141 -14.5l53 -8l-4 -68q-209 33 -348 33q-42 0 -79 -5t-74 -19.5t-63 -36.5t-42 -59t-16 -85q0 -96 56.5 -135.5t233.5 -67.5q89 -14 143 -26.5t103 -32.5t74 -48t39 -68.5t14 -98.5 q0 -172 -98 -242.5t-291 -70.5q-52 0 -136.5 8t-142.5 16l-59 8l8 68q222 -35 326 -35q158 0 237.5 51.5t79.5 190.5q0 56 -14 90t-54.5 58t-94.5 37t-154 28q-79 12 -129 23.5t-95.5 31t-69.5 46.5t-38 67.5t-14 97.5z" />
<glyph unicode="t" horiz-adv-x="761" d="M72 958v66h161v334h72v-334h373v-66h-373v-536q0 -98 4 -157t14.5 -106.5t32.5 -69.5t54.5 -33t83.5 -11q25 0 75 4t87 8l38 4l6 -65q-134 -16 -206 -16q-98 0 -152 29.5t-81.5 108.5t-27.5 226v614h-161z" />
<glyph unicode="u" horiz-adv-x="1140" d="M190 492v532h72v-528q0 -111 6 -181t21.5 -126.5t46 -85t76 -42.5t114.5 -14q51 0 104.5 10.5t93 25.5t72 30.5t49.5 26.5l17 10v874h72v-1024h-72v82q-7 -4 -18.5 -11t-48.5 -24t-75 -30t-91.5 -24t-102.5 -11q-71 0 -122 10t-89 34.5t-61.5 61t-38 96.5t-20 132 t-5.5 176z" />
<glyph unicode="v" horiz-adv-x="983" d="M72 1024h75l299 -958h89l301 958h75l-321 -1024h-201z" />
<glyph unicode="w" horiz-adv-x="1558" d="M78 1024h76l260 -958h22l303 938h80l301 -938h23l262 958h76l-281 -1024h-139l-283 918l-284 -918h-140z" />
<glyph unicode="x" horiz-adv-x="933" d="M78 0l346 512l-346 512h82l307 -457l307 457h82l-346 -512l346 -512h-84l-305 457l-305 -457h-84z" />
<glyph unicode="y" horiz-adv-x="983" d="M72 1024h75l302 -958h83l304 958h75l-469 -1495h-75l147 471h-125z" />
<glyph unicode="z" horiz-adv-x="985" d="M113 0v66l671 892h-671v66h759v-66l-671 -892h671v-66h-759z" />
<glyph unicode="{" horiz-adv-x="583" d="M0 602v66q116 29 164.5 86t48.5 159q0 26 -7 124.5t-7 138.5q0 185 82.5 270t277.5 92l4 -65q-167 -7 -230 -78.5t-63 -218.5q0 -35 7.5 -125.5t7.5 -118.5q0 -132 -45 -194.5t-160 -100.5q114 -37 159.5 -100.5t45.5 -190.5q-1 -25 -8 -108t-7 -129q0 -145 63.5 -217.5 t229.5 -79.5l-4 -66q-194 7 -277 92.5t-83 270.5q0 44 7 136.5t7 114.5q0 98 -48 153t-165 89z" />
<glyph unicode="|" d="M496 -121v1555h71v-1555h-71z" />
<glyph unicode="}" horiz-adv-x="583" d="M0 -188q166 7 229.5 79.5t63.5 217.5q0 47 -6.5 131.5t-7.5 105.5q0 128 45 191t159 100q-115 37 -159.5 99.5t-44.5 195.5q0 28 7 118.5t7 125.5q0 147 -63 218.5t-230 78.5l4 65q195 -7 278 -92t83 -270q0 -40 -7.5 -138.5t-7.5 -124.5q0 -102 48.5 -159t164.5 -86v-66 q-117 -34 -165 -89t-48 -153q0 -22 7.5 -114.5t7.5 -136.5q0 -185 -83 -270.5t-278 -92.5z" />
<glyph unicode="~" d="M139 649q13 12 34.5 30.5t77 49.5t97.5 31q55 0 133.5 -28t150 -55.5t107.5 -27.5q34 0 82 27.5t79 54.5l32 27l14 -76q-5 -4 -13 -11.5t-32 -26t-47.5 -32.5t-55 -25.5t-57.5 -11.5q-67 0 -206.5 55.5t-186.5 55.5q-34 0 -82.5 -27t-79.5 -54l-32 -27z" />
<glyph unicode="&#xa1;" d="M512 858v164h82v-164h-82zM518 -410v996h72v-996h-72z" />
<glyph unicode="&#xa2;" horiz-adv-x="894" d="M121 506q0 224 89.5 328t266.5 110v266h72v-268q41 -2 100 -7t98 -9l39 -4l-4 -72q-204 20 -282 20q-164 0 -230.5 -83t-66.5 -281q0 -104 14 -168t50.5 -106t96 -58t156.5 -16q35 0 101.5 4t115.5 8l49 4l5 -72q-152 -16 -240 -18v-258h-72v258q-99 3 -163 22.5 t-110 66.5t-65.5 127.5t-19.5 205.5z" />
<glyph unicode="&#xa3;" d="M193 0v70h188v696h-141v65h141v130q0 134 14 217t49.5 131.5t85.5 66t132 17.5q35 0 96 -6.5t105 -12.5l44 -6v-65q-177 24 -245 24q-87 0 -130 -31t-61 -109t-18 -235v-121h372v-65h-372v-696h356l168 32l14 -65l-168 -37h-630z" />
<glyph unicode="&#xa4;" horiz-adv-x="1083" d="M127 154l145 143q-78 95 -78 219t78 219l-145 144l53 53l144 -146q95 78 219 78t219 -78l143 146l53 -53l-145 -144q78 -95 78 -219t-78 -219l145 -143l-53 -54l-143 146q-95 -78 -219 -78t-219 78l-144 -146zM270 517q0 -115 78 -195q80 -78 195 -78t194 78 q78 80 78 195t-78 194q-79 78 -194 78t-195 -78q-78 -79 -78 -194z" />
<glyph unicode="&#xa5;" horiz-adv-x="1105" d="M51 1352h84l420 -633l414 633h86l-391 -604h344v-70h-390l-26 -41v-195h418v-69h-418v-373h-74v373h-420v69h420v195l-26 41h-396v70h350z" />
<glyph unicode="&#xa6;" d="M489 -123v729h70v-729h-70zM489 807v729h70v-729h-70z" />
<glyph unicode="&#xa7;" d="M164 580q0 62 27.5 123t54.5 91l28 31q-90 69 -90 234q0 145 94 219t265 74q57 0 137 -7t131 -13l51 -7l-4 -65q-217 26 -315 26q-287 0 -287 -225q0 -56 13 -96t34 -65.5t62.5 -43t83 -27t110.5 -20.5q87 -14 143.5 -31t104.5 -48.5t70 -82.5t22 -125q0 -59 -20 -124 t-40 -100l-20 -36q74 -59 74 -190q0 -159 -91.5 -241.5t-262.5 -82.5q-55 0 -141 7t-144 13l-59 7l6 65q225 -28 338 -28q137 0 209.5 64.5t72.5 193.5q0 36 -7 64t-17.5 48t-32.5 35.5t-41 25t-56.5 18t-64.5 13t-78 11.5q-92 13 -154.5 32t-111 52t-71.5 85t-23 126z M236 584q0 -111 71 -161t232 -73q165 -25 227 -55q7 12 17 32.5t27 79t17 109.5q0 50 -14 86.5t-35 59t-60.5 39t-76 25t-96.5 17.5q-158 25 -219 54q-10 -12 -25 -33t-40 -77.5t-25 -102.5z" />
<glyph unicode="&#xa8;" horiz-adv-x="440" d="M0 1307v127h72v-127h-72zM389 1307v127h72v-127h-72z" />
<glyph unicode="&#xa9;" d="M20 889q0 149 67.5 274t188 198t267.5 73q148 0 268.5 -73t188 -198t67.5 -274t-67.5 -273.5t-188 -197t-268.5 -72.5t-268 72.5t-187.5 197t-67.5 273.5zM86 889q0 -200 130.5 -338.5t326.5 -138.5t327 138.5t131 338.5t-131 339.5t-327 139.5t-326.5 -139.5 t-130.5 -339.5zM319 887q0 59 5.5 104.5t20.5 86.5t39.5 67t64.5 41.5t94 15.5q35 0 72.5 -3.5t58.5 -6.5l20 -4l-2 -66q-83 15 -149 15q-42 0 -71 -11.5t-46 -30.5t-26.5 -52.5t-12 -68t-2.5 -87.5q0 -127 32.5 -186.5t125.5 -59.5q25 0 62.5 4t62.5 8l24 4l2 -65 q-88 -17 -151 -17q-66 0 -111 22t-69 65t-34 97t-10 128z" />
<glyph unicode="&#xaa;" horiz-adv-x="1060" d="M283 954q0 74 37.5 112t115.5 44l209 14v47q0 65 -24 89t-82 24q-31 0 -84.5 -3.5t-90.5 -6.5l-38 -4l-4 63q141 17 217 17q89 0 129.5 -42.5t40.5 -138.5v-274q7 -24 24 -34t51 -13l-4 -57q-38 1 -61.5 11t-48.5 34q-129 -45 -244 -45q-64 0 -103.5 44.5t-39.5 118.5z M350 950q0 -94 82 -94q41 0 94 8.5t86 17.5l33 9v174l-199 -12q-52 -4 -74 -28t-22 -75z" />
<glyph unicode="&#xab;" d="M184 479v74l342 264v-80l-276 -217l276 -239v-84zM608 479v74l342 264v-80l-276 -217l276 -239v-84z" />
<glyph unicode="&#xac;" d="M141 610v70h811v-422h-73v352h-738z" />
<glyph unicode="&#xad;" horiz-adv-x="901" d="M123 541v69h655v-69h-655z" />
<glyph unicode="&#xae;" d="M20 889q0 149 67.5 274t188 198t267.5 73q148 0 268.5 -73t188 -198t67.5 -274t-67.5 -273.5t-188 -197t-268.5 -72.5t-268 72.5t-187.5 197t-67.5 273.5zM86 889q0 -200 130.5 -338.5t326.5 -138.5t327 138.5t131 338.5t-131 339.5t-327 139.5t-326.5 -139.5 t-130.5 -339.5zM334 565v645h186q130 0 183 -41.5t53 -142.5q0 -155 -121 -186l133 -275h-72l-135 269h-162v-269h-65zM399 899h164q69 0 98 27.5t29 99.5q0 67 -39 93t-125 26h-127v-246z" />
<glyph unicode="&#xaf;" horiz-adv-x="440" d="M-41 1315v65h547v-65h-547z" />
<glyph unicode="&#xb0;" d="M221 1155q0 125 77.5 202t201.5 77t201 -77t77 -202q0 -124 -76.5 -200t-201.5 -76t-202 76t-77 200zM291 1155q0 -95 57 -153t152 -58t154 58t59 153t-59 154t-154 59t-152 -58.5t-57 -154.5z" />
<glyph unicode="&#xb1;" d="M113 676v69h395v283h74v-283h407v-69h-407v-295h-74v295h-395zM115 164v69h876v-69h-876z" />
<glyph unicode="&#xb2;" horiz-adv-x="542" d="M57 979v70l201 213q38 40 57 63.5t36.5 62t17.5 76.5q0 53 -32 78t-85 25q-31 0 -77 -6.5t-77 -12.5l-30 -6l-5 68q105 26 191 26q188 0 188 -174q0 -66 -32.5 -121t-100.5 -127l-155 -165h303v-70h-400z" />
<glyph unicode="&#xb3;" horiz-adv-x="542" d="M59 983l7 66q111 -19 213 -19q65 0 97 32t32 87q0 125 -123 125h-133v69h133q36 0 70 39.5t34 90.5q0 48 -27 71t-92 23q-42 0 -91 -4.5t-77 -9.5l-28 -5l-6 66q108 22 200 22q101 0 149 -39t48 -124q0 -40 -13 -72.5t-33 -50.5t-31.5 -25.5t-20.5 -11.5q41 -11 63.5 -25 t37.5 -47.5t15 -89.5q0 -190 -204 -190q-44 0 -99 5.5t-88 11.5z" />
<glyph unicode="&#xb4;" horiz-adv-x="548" d="M82 1303l393 196l33 -63l-395 -189z" />
<glyph unicode="&#xb6;" d="M16 1073q0 159 110 260t271 101h672v-68h-199v-1366h-73v1366h-312v-1366h-73v717h-15q-162 0 -271.5 99t-109.5 257z" />
<glyph unicode="&#xb7;" horiz-adv-x="507" d="M201 553v164h82v-164h-82z" />
<glyph unicode="&#xb8;" horiz-adv-x="1705" d="M811 -403l4 57q90 -8 160 -8q48 0 73 21.5t25 72.5q0 86 -98 86h-111v176h68v-119q114 0 163.5 -30t49.5 -113q0 -78 -45 -115t-123 -37q-40 0 -81.5 2t-63.5 4z" />
<glyph unicode="&#xb9;" horiz-adv-x="542" d="M80 1481l203 137h73v-639h-73v559l-168 -115z" />
<glyph unicode="&#xba;" horiz-adv-x="1077" d="M295 1073q0 143 58.5 210t176.5 67t175 -67t57 -210q0 -144 -57 -213t-175 -69t-176.5 69t-58.5 213zM365 1073q0 -117 38.5 -167t126.5 -50t125 50t37 167q0 116 -37 163.5t-125 47.5q-89 0 -127 -47.5t-38 -163.5z" />
<glyph unicode="&#xbb;" d="M135 197v84l277 239l-277 217v80l342 -264v-74zM559 197v84l277 239l-277 217v80l342 -264v-74z" />
<glyph unicode="&#xbf;" horiz-adv-x="790" d="M20 -104q0 68 22.5 129.5t58.5 108t79.5 90t87 83t79.5 77.5t58.5 82.5t22.5 90.5v78h72v-84q0 -51 -22.5 -100.5t-58.5 -90t-79.5 -81.5t-87 -83.5t-79.5 -86.5t-58.5 -99t-22.5 -114q0 -142 83 -199t255 -57q44 0 126.5 14t143.5 28l60 15l10 -70q-229 -55 -340 -55 q-204 0 -307 75t-103 249zM422 858v164h82v-164h-82z" />
<glyph unicode="&#xc0;" horiz-adv-x="1236" d="M72 0l440 1434h217l436 -1430h-73l-138 436h-671l-138 -440h-73zM303 510h631l-260 854h-111zM377 1825l33 63l393 -196l-31 -56z" />
<glyph unicode="&#xc1;" horiz-adv-x="1236" d="M72 0l440 1434h217l436 -1430h-73l-138 436h-671l-138 -440h-73zM303 510h631l-260 854h-111zM426 1712l393 197l33 -64l-395 -188z" />
<glyph unicode="&#xc2;" horiz-adv-x="1236" d="M72 0l440 1434h217l436 -1430h-73l-138 436h-671l-138 -440h-73zM303 510h631l-260 854h-111zM340 1638l248 271h57l250 -271h-88l-189 205l-190 -205h-88z" />
<glyph unicode="&#xc3;" horiz-adv-x="1236" d="M72 0l440 1434h217l436 -1430h-73l-138 436h-671l-138 -440h-73zM276 1780q13 13 34.5 32.5t71 51.5t79.5 32q37 0 104.5 -32t130.5 -64.5t90 -32.5q16 0 53 26.5t66 52.5l29 26l22 -57q-12 -13 -31.5 -31.5t-65 -50t-73.5 -31.5q-37 0 -104.5 33t-130.5 65.5t-90 32.5 q-19 0 -60 -28.5t-73 -56.5l-31 -28zM303 510h631l-260 854h-111z" />
<glyph unicode="&#xc4;" horiz-adv-x="1236" d="M72 0l440 1434h217l436 -1430h-73l-138 436h-671l-138 -440h-73zM303 510h631l-260 854h-111zM408 1716v127h71v-127h-71zM797 1716v127h71v-127h-71z" />
<glyph unicode="&#xc5;" horiz-adv-x="1236" d="M72 0l428 1395q-82 50 -82 159q0 88 54 138.5t144 50.5t144.5 -50.5t54.5 -138.5q0 -105 -76 -155l426 -1395h-73l-138 436h-671l-138 -440h-73zM303 510h631l-260 854h-111zM485 1554q0 -97 82 -120h97q84 22 84 120q0 61 -35 94t-97 33t-96.5 -33t-34.5 -94z" />
<glyph unicode="&#xc6;" horiz-adv-x="1839" d="M72 0l514 1434h1130v-70h-764v-590h641v-69h-641v-635h764v-70h-837v440h-566l-159 -440h-82zM338 510h541v854h-236z" />
<glyph unicode="&#xc7;" horiz-adv-x="1099" d="M119 711q0 120 7.5 210.5t27.5 179t56.5 149.5t92 108.5t137.5 70.5t189 23q87 0 181.5 -10t145.5 -20l52 -9l-7 -72q-206 41 -372 41q-81 0 -145 -16.5t-109 -44.5t-77.5 -75t-52 -98.5t-30.5 -125.5t-14.5 -144.5t-3.5 -166.5q0 -95 4 -166.5t15.5 -143t31.5 -122.5 t52.5 -96.5t78 -73t108 -43t142.5 -15.5q64 0 157 10.5t154 20.5l61 10l7 -69q-199 -37 -357 -41v-99q114 0 163.5 -30t49.5 -113q0 -78 -45 -115t-123 -37q-40 0 -81.5 2t-62.5 4l-22 3l5 57q89 -8 159 -8q99 0 99 94q0 86 -99 86h-110v158q-113 5 -195.5 41.5t-134 95.5 t-82 151t-42 196t-11.5 243z" />
<glyph unicode="&#xc8;" horiz-adv-x="1171" d="M211 0v1434h838v-70h-764v-592h641v-70h-641v-632h764v-70h-838zM410 1825l32 63l394 -196l-31 -56z" />
<glyph unicode="&#xc9;" horiz-adv-x="1171" d="M211 0v1434h838v-70h-764v-592h641v-70h-641v-632h764v-70h-838zM457 1712l393 197l33 -64l-396 -188z" />
<glyph unicode="&#xca;" horiz-adv-x="1171" d="M211 0v1434h838v-70h-764v-592h641v-70h-641v-632h764v-70h-838zM352 1638l248 271h57l250 -271h-88l-188 205l-191 -205h-88z" />
<glyph unicode="&#xcb;" horiz-adv-x="1171" d="M211 0v1434h838v-70h-764v-592h641v-70h-641v-632h764v-70h-838zM399 1716v127h72v-127h-72zM788 1716v127h72v-127h-72z" />
<glyph unicode="&#xcc;" horiz-adv-x="462" d="M-41 1825l33 63l393 -196l-31 -56zM195 0v1434h73v-1434h-73z" />
<glyph unicode="&#xcd;" horiz-adv-x="462" d="M41 1692l393 196l33 -63l-395 -189zM195 0v1434h73v-1434h-73z" />
<glyph unicode="&#xce;" horiz-adv-x="462" d="M-72 1657l275 256h61l275 -256h-93l-213 196l-210 -196h-95zM195 0v1434h73v-1434h-73z" />
<glyph unicode="&#xcf;" horiz-adv-x="462" d="M-2 1716v127h72v-127h-72zM195 0v1434h73v-1434h-73zM399 1716v127h72v-127h-72z" />
<glyph unicode="&#xd0;" horiz-adv-x="1337" d="M53 664v69h158v701h532q105 0 188 -38.5t137 -103t89.5 -155t50.5 -189.5t15 -211q0 -113 -15 -215.5t-50.5 -199t-89.5 -167t-137.5 -113t-187.5 -42.5h-532v664h-158zM285 70h458q89 0 159.5 40.5t115 105.5t74 154t41.5 179.5t12 187.5t-12 183.5t-41.5 169.5 t-74 142.5t-115 95.5t-159.5 36h-458v-631h342v-69h-342v-594z" />
<glyph unicode="&#xd1;" horiz-adv-x="1406" d="M211 0v1434h174l682 -1364h55v1364h74v-1434h-174l-684 1364h-53v-1364h-74zM395 1778q11 11 29.5 27t63.5 42.5t75 26.5q43 0 156.5 -54.5t144.5 -54.5q16 0 48 21t56 42l23 21l19 -61q-10 -10 -26 -24.5t-56 -39t-68 -24.5q-43 0 -156.5 55t-144.5 55q-19 0 -55 -23 t-62 -46l-26 -23z" />
<glyph unicode="&#xd2;" horiz-adv-x="1343" d="M123 711q0 147 15 257.5t52.5 204.5t99 153.5t157 92.5t225.5 33t225.5 -32.5t157 -92t99 -153t52.5 -204.5t15 -259q0 -155 -15 -267t-51.5 -203t-99 -146t-157 -84t-226.5 -29q-131 0 -226.5 31t-157.5 88t-99 149t-51.5 202t-14.5 259zM201 711q0 -138 11 -235 t41 -182t82.5 -135.5t136 -79t200.5 -28.5q99 0 172.5 17t125.5 54.5t85.5 88.5t53 129t27 165t7.5 206q0 134 -12 233.5t-43 185t-83.5 139t-135.5 83.5t-197 30q-115 0 -198 -29.5t-135.5 -82.5t-83.5 -139t-42.5 -185t-11.5 -235zM453 1825l32 63l394 -196l-31 -56z" />
<glyph unicode="&#xd3;" horiz-adv-x="1343" d="M123 711q0 147 15 257.5t52.5 204.5t99 153.5t157 92.5t225.5 33t225.5 -32.5t157 -92t99 -153t52.5 -204.5t15 -259q0 -155 -15 -267t-51.5 -203t-99 -146t-157 -84t-226.5 -29q-131 0 -226.5 31t-157.5 88t-99 149t-51.5 202t-14.5 259zM201 711q0 -138 11 -235 t41 -182t82.5 -135.5t136 -79t200.5 -28.5q99 0 172.5 17t125.5 54.5t85.5 88.5t53 129t27 165t7.5 206q0 134 -12 233.5t-43 185t-83.5 139t-135.5 83.5t-197 30q-115 0 -198 -29.5t-135.5 -82.5t-83.5 -139t-42.5 -185t-11.5 -235zM459 1712l393 197l33 -64l-396 -188z " />
<glyph unicode="&#xd4;" horiz-adv-x="1343" d="M123 711q0 147 15 257.5t52.5 204.5t99 153.5t157 92.5t225.5 33t225.5 -32.5t157 -92t99 -153t52.5 -204.5t15 -259q0 -155 -15 -267t-51.5 -203t-99 -146t-157 -84t-226.5 -29q-131 0 -226.5 31t-157.5 88t-99 149t-51.5 202t-14.5 259zM201 711q0 -138 11 -235 t41 -182t82.5 -135.5t136 -79t200.5 -28.5q99 0 172.5 17t125.5 54.5t85.5 88.5t53 129t27 165t7.5 206q0 134 -12 233.5t-43 185t-83.5 139t-135.5 83.5t-197 30q-115 0 -198 -29.5t-135.5 -82.5t-83.5 -139t-42.5 -185t-11.5 -235zM395 1638l248 271h57l250 -271h-88 l-188 205l-191 -205h-88z" />
<glyph unicode="&#xd5;" horiz-adv-x="1343" d="M123 711q0 147 15 257.5t52.5 204.5t99 153.5t157 92.5t225.5 33t225.5 -32.5t157 -92t99 -153t52.5 -204.5t15 -259q0 -155 -15 -267t-51.5 -203t-99 -146t-157 -84t-226.5 -29q-131 0 -226.5 31t-157.5 88t-99 149t-51.5 202t-14.5 259zM201 711q0 -138 11 -235 t41 -182t82.5 -135.5t136 -79t200.5 -28.5q99 0 172.5 17t125.5 54.5t85.5 88.5t53 129t27 165t7.5 206q0 134 -12 233.5t-43 185t-83.5 139t-135.5 83.5t-197 30q-115 0 -198 -29.5t-135.5 -82.5t-83.5 -139t-42.5 -185t-11.5 -235zM367 1778q11 11 29.5 27t63.5 42.5 t75 26.5q43 0 156.5 -54.5t144.5 -54.5q16 0 48 21t56 42l23 21l18 -61q-10 -10 -26 -24.5t-56 -39t-68 -24.5q-43 0 -156.5 55t-144.5 55q-19 0 -55 -23t-62 -46l-26 -23z" />
<glyph unicode="&#xd6;" horiz-adv-x="1343" d="M123 711q0 147 15 257.5t52.5 204.5t99 153.5t157 92.5t225.5 33t225.5 -32.5t157 -92t99 -153t52.5 -204.5t15 -259q0 -155 -15 -267t-51.5 -203t-99 -146t-157 -84t-226.5 -29q-131 0 -226.5 31t-157.5 88t-99 149t-51.5 202t-14.5 259zM201 711q0 -138 11 -235 t41 -182t82.5 -135.5t136 -79t200.5 -28.5q99 0 172.5 17t125.5 54.5t85.5 88.5t53 129t27 165t7.5 206q0 134 -12 233.5t-43 185t-83.5 139t-135.5 83.5t-197 30q-115 0 -198 -29.5t-135.5 -82.5t-83.5 -139t-42.5 -185t-11.5 -235zM436 1716v127h72v-127h-72zM825 1716 v127h72v-127h-72z" />
<glyph unicode="&#xd7;" horiz-adv-x="1705" d="M401 80l412 432l-407 426l55 49l401 -424l404 424l55 -49l-408 -426l412 -432l-53 -47l-410 426l-407 -426z" />
<glyph unicode="&#xd8;" horiz-adv-x="1343" d="M123 711q0 147 15 257.5t52.5 204.5t99 153.5t157 92.5t225.5 33q169 0 286 -57l107 227l68 -29l-113 -237q110 -85 155.5 -243.5t45.5 -401.5q0 -155 -15 -267t-51.5 -203t-99 -146t-157 -84t-226.5 -29q-163 0 -275 47l-118 -256l-68 26l123 264q-117 78 -164 235.5 t-47 412.5zM201 711q0 -229 36 -368.5t130 -211.5l559 1196q-98 55 -254 55q-115 0 -198 -29.5t-135.5 -82.5t-83.5 -139t-42.5 -185t-11.5 -235zM428 94q93 -43 244 -43q99 0 172.5 17t125.5 54.5t85.5 88.5t53 129t27 165t7.5 206q0 213 -35 353.5t-121 219.5z" />
<glyph unicode="&#xd9;" horiz-adv-x="1314" d="M184 401v1033h74v-1033q0 -186 100 -268t289 -82q203 0 306.5 81t103.5 269v1033h73v-1033q0 -223 -121.5 -321t-361.5 -98q-226 0 -344.5 98t-118.5 321zM434 1825l33 63l393 -196l-31 -56z" />
<glyph unicode="&#xda;" horiz-adv-x="1314" d="M184 401v1033h74v-1033q0 -186 100 -268t289 -82q203 0 306.5 81t103.5 269v1033h73v-1033q0 -223 -121.5 -321t-361.5 -98q-226 0 -344.5 98t-118.5 321zM444 1712l394 197l32 -64l-395 -188z" />
<glyph unicode="&#xdb;" horiz-adv-x="1314" d="M184 401v1033h74v-1033q0 -186 100 -268t289 -82q203 0 306.5 81t103.5 269v1033h73v-1033q0 -223 -121.5 -321t-361.5 -98q-226 0 -344.5 98t-118.5 321zM381 1638l248 271h57l250 -271h-88l-189 205l-190 -205h-88z" />
<glyph unicode="&#xdc;" horiz-adv-x="1314" d="M184 401v1033h74v-1033q0 -186 100 -268t289 -82q203 0 306.5 81t103.5 269v1033h73v-1033q0 -223 -121.5 -321t-361.5 -98q-226 0 -344.5 98t-118.5 321zM451 1716v127h71v-127h-71zM840 1716v127h71v-127h-71z" />
<glyph unicode="&#xdd;" horiz-adv-x="1105" d="M51 1434h84l420 -736l414 736h86l-463 -818v-616h-74v616zM340 1712l393 197l33 -64l-395 -188z" />
<glyph unicode="&#xde;" horiz-adv-x="1259" d="M211 0v1434h74v-250h448q222 0 323 -104t101 -328q0 -476 -424 -476h-448v-276h-74zM285 346h448q346 0 346 406q0 188 -81 275t-265 87h-448v-768z" />
<glyph unicode="&#xdf;" horiz-adv-x="1206" d="M207 0v1149q0 206 81.5 285t272.5 79q194 0 271 -64t77 -212q0 -95 -33.5 -167t-97.5 -97q-90 -35 -115.5 -53t-25.5 -50q0 -23 28.5 -47.5t143.5 -93.5q24 -15 60 -36t53.5 -31.5t43.5 -26.5t38 -25t28.5 -22t23.5 -22t14.5 -21.5t10 -24.5t2.5 -26q0 -96 -7.5 -164 t-27.5 -129t-54 -99.5t-88.5 -66.5t-130.5 -40.5t-179 -12.5l-160 8l8 69q117 -8 152 -8q80 0 140.5 9t104.5 24.5t74 44.5t48 60.5t27.5 82t12.5 100t3 122.5q0 24 -54 63.5t-194 118.5q-94 52 -135.5 83t-52.5 52.5t-11 58.5q0 58 37.5 88t140.5 74q32 14 52 34t29 50 t11 54.5t2 66.5q0 116 -58.5 161.5t-211.5 45.5q-78 0 -127 -12.5t-85.5 -47.5t-52 -98.5t-15.5 -163.5v-1122h-74z" />
<glyph unicode="&#xe0;" horiz-adv-x="1060" d="M113 281q0 134 67 206.5t215 87.5l389 41v107q0 131 -56 190.5t-171 59.5q-67 0 -163.5 -8.5t-159.5 -17.5l-64 -9l-6 68q229 36 393 36q154 0 226.5 -79.5t72.5 -239.5v-590q8 -74 154 -86l-4 -63q-150 0 -211 86q-23 -10 -63.5 -24.5t-150 -39t-200.5 -24.5 q-128 0 -198 76t-70 223zM188 281q0 -112 50.5 -173t144.5 -61q86 0 186 21t157 42l58 21v420l-381 -39q-117 -12 -166 -67t-49 -164zM287 1436l32 63l394 -196l-31 -56z" />
<glyph unicode="&#xe1;" horiz-adv-x="1060" d="M113 281q0 134 67 206.5t215 87.5l389 41v107q0 131 -56 190.5t-171 59.5q-67 0 -163.5 -8.5t-159.5 -17.5l-64 -9l-6 68q229 36 393 36q154 0 226.5 -79.5t72.5 -239.5v-590q8 -74 154 -86l-4 -63q-150 0 -211 86q-23 -10 -63.5 -24.5t-150 -39t-200.5 -24.5 q-128 0 -198 76t-70 223zM188 281q0 -112 50.5 -173t144.5 -61q86 0 186 21t157 42l58 21v420l-381 -39q-117 -12 -166 -67t-49 -164zM285 1303l393 196l33 -63l-396 -189z" />
<glyph unicode="&#xe2;" horiz-adv-x="1060" d="M113 281q0 134 67 206.5t215 87.5l389 41v107q0 131 -56 190.5t-171 59.5q-67 0 -163.5 -8.5t-159.5 -17.5l-64 -9l-6 68q229 36 393 36q154 0 226.5 -79.5t72.5 -239.5v-590q8 -74 154 -86l-4 -63q-150 0 -211 86q-23 -10 -63.5 -24.5t-150 -39t-200.5 -24.5 q-128 0 -198 76t-70 223zM188 281q0 -112 50.5 -173t144.5 -61q86 0 186 21t157 42l58 21v420l-381 -39q-117 -12 -166 -67t-49 -164zM225 1229l248 270h57l250 -270h-88l-188 205l-191 -205h-88z" />
<glyph unicode="&#xe3;" horiz-adv-x="1060" d="M113 281q0 134 66.5 206.5t215.5 87.5l389 41v107q0 131 -56 190.5t-171 59.5q-67 0 -163.5 -8.5t-159.5 -17.5l-64 -9l-6 68q229 36 393 36q154 0 226.5 -79.5t72.5 -239.5v-588q7 -73 154 -86l-4 -65q-152 0 -211 82q-8 -3 -22 -9t-59.5 -20.5t-92.5 -25.5t-115 -20 t-133 -9q-122 0 -191 76t-69 223zM188 281q0 -111 50 -172.5t137 -61.5q90 0 192.5 20.5t159.5 40.5l57 21v420l-381 -37q-115 -11 -165 -70.5t-50 -160.5zM197 1368q11 11 29.5 27t63.5 42.5t75 26.5q43 0 156.5 -54t144.5 -54q16 0 48 21t56 42l23 21l18 -62 q-10 -10 -26 -24.5t-55.5 -39t-67.5 -24.5q-43 0 -157 55.5t-145 55.5q-19 0 -55 -23t-62 -46l-26 -23z" />
<glyph unicode="&#xe4;" horiz-adv-x="1060" d="M113 281q0 134 66.5 206.5t215.5 87.5l389 41v107q0 131 -56 190.5t-171 59.5q-67 0 -163.5 -8.5t-159.5 -17.5l-64 -9l-6 68q229 36 393 36q154 0 226.5 -79.5t72.5 -239.5v-588q7 -73 154 -86l-4 -65q-152 0 -211 82q-8 -3 -22 -9t-59.5 -20.5t-92.5 -25.5t-115 -20 t-133 -9q-122 0 -191 76t-69 223zM188 281q0 -111 50 -172.5t137 -61.5q90 0 192.5 20.5t159.5 40.5l57 21v420l-381 -37q-115 -11 -165 -70.5t-50 -160.5zM289 1307v127h71v-127h-71zM678 1307v127h72v-127h-72z" />
<glyph unicode="&#xe5;" horiz-adv-x="1060" d="M113 281q0 134 67 206.5t215 87.5l389 41v107q0 131 -56 190.5t-171 59.5q-67 0 -163.5 -8.5t-159.5 -17.5l-64 -9l-6 68q229 36 393 36q154 0 226.5 -79.5t72.5 -239.5v-590q8 -74 154 -86l-4 -63q-150 0 -211 86q-23 -10 -63.5 -24.5t-150 -39t-200.5 -24.5 q-128 0 -198 76t-70 223zM188 281q0 -112 50.5 -173t144.5 -61q86 0 186 21t157 42l58 21v420l-381 -39q-117 -12 -166 -67t-49 -164zM328 1331q0 82 56.5 138.5t139.5 56.5q82 0 137.5 -56.5t55.5 -138.5q0 -83 -55.5 -138.5t-137.5 -55.5q-83 0 -139.5 55.5t-56.5 138.5z M397 1331q0 -54 36.5 -92.5t90.5 -38.5q52 0 88.5 38.5t36.5 92.5q0 53 -36.5 91t-88.5 38q-53 0 -90 -38t-37 -91z" />
<glyph unicode="&#xe6;" horiz-adv-x="1695" d="M113 281q0 49 7 87t20 67.5t37 51t51.5 37t70 27t86.5 19.5t107 16l292 30v107q0 132 -57 191t-170 59q-68 0 -164 -4.5t-159 -9.5l-62 -5l-4 68q225 20 389 20q236 0 285 -196q100 196 352 196q195 0 292 -116t97 -375v-68h-727q0 -223 69.5 -329.5t241.5 -106.5 q64 0 157 4.5t154 9.5l62 5l4 -66q-229 -18 -379 -18q-202 0 -293 118l-77 -32q-8 -3 -22 -9t-59.5 -21t-92.5 -26t-115 -20.5t-133 -9.5q-127 0 -193.5 75t-66.5 224zM188 281q0 -113 50 -173.5t137 -60.5q85 0 199 25.5t172 45t96 34.5q-62 121 -62 397l-377 -37 q-114 -10 -164.5 -65t-50.5 -166zM856 549h651q0 231 -75 329.5t-238 98.5q-338 0 -338 -428z" />
<glyph unicode="&#xe7;" horiz-adv-x="894" d="M123 535q0 282 94.5 394.5t325.5 112.5q35 0 96 -5t105 -10l44 -5l-4 -66q-163 21 -241 21q-195 0 -269.5 -98t-74.5 -344q0 -93 5 -159t19.5 -123.5t38.5 -94t62.5 -63t92 -37.5t126.5 -11q35 0 96 4.5t105 9.5l44 5l5 -66q-172 -18 -250 -18h-25v-99q114 0 163.5 -30 t49.5 -113q0 -78 -45 -115t-123 -37q-40 0 -81.5 2t-63.5 4l-21 3l4 57q90 -8 160 -8q48 0 73 21.5t25 72.5q0 86 -98 86h-110v160q-99 9 -162.5 42.5t-100.5 102.5t-51 163.5t-14 240.5z" />
<glyph unicode="&#xe8;" horiz-adv-x="1038" d="M123 512q0 530 414 530q195 0 292 -116t97 -375v-68h-727q0 -223 69.5 -329.5t241.5 -106.5q64 0 157 4.5t155 9.5l61 5l4 -66q-229 -18 -379 -18q-90 1 -157 24.5t-110.5 66t-70 109.5t-37 146t-10.5 184zM199 549h651q0 231 -75 329.5t-238 98.5q-338 0 -338 -428z M266 1438l33 63l393 -196l-30 -56z" />
<glyph unicode="&#xe9;" horiz-adv-x="1038" d="M123 512q0 530 414 530q195 0 292 -116t97 -375v-68h-727q0 -223 69.5 -329.5t241.5 -106.5q64 0 157 4.5t155 9.5l61 5l4 -66q-229 -18 -379 -18q-90 1 -157 24.5t-110.5 66t-70 109.5t-37 146t-10.5 184zM199 549h651q0 231 -75 329.5t-238 98.5q-338 0 -338 -428z M354 1303l394 196l32 -63l-395 -189z" />
<glyph unicode="&#xea;" horiz-adv-x="1038" d="M123 512q0 530 414 530q195 0 292 -116t97 -375v-68h-727q0 -223 69.5 -329.5t241.5 -106.5q64 0 157 4.5t155 9.5l61 5l4 -66q-229 -18 -379 -18q-90 1 -157 24.5t-110.5 66t-70 109.5t-37 146t-10.5 184zM199 549h651q0 231 -75 329.5t-238 98.5q-338 0 -338 -428z M266 1229l248 270h57l250 -270h-88l-188 205l-191 -205h-88z" />
<glyph unicode="&#xeb;" horiz-adv-x="1038" d="M123 512q0 530 414 530q195 0 292 -116t97 -375v-68h-727q0 -223 69.5 -329.5t241.5 -106.5q64 0 157 4.5t155 9.5l61 5l4 -66q-229 -18 -379 -18q-90 1 -157 24.5t-110.5 66t-70 109.5t-37 146t-10.5 184zM199 549h651q0 231 -75 329.5t-238 98.5q-338 0 -338 -428z M299 1307v127h72v-127h-72zM688 1307v127h72v-127h-72z" />
<glyph unicode="&#xec;" horiz-adv-x="534" d="M55 1436l33 63l393 -196l-30 -56zM231 0v1024h72v-1024h-72z" />
<glyph unicode="&#xed;" horiz-adv-x="534" d="M117 1303l393 196l33 -63l-396 -189zM231 0v1024h72v-1024h-72z" />
<glyph unicode="&#xee;" horiz-adv-x="534" d="M-10 1229l248 270h57l250 -270h-88l-189 205l-190 -205h-88zM231 0v1024h72v-1024h-72z" />
<glyph unicode="&#xef;" horiz-adv-x="534" d="M31 1307v127h71v-127h-71zM231 0v1024h72v-1024h-72zM420 1307v127h72v-127h-72z" />
<glyph unicode="&#xf0;" d="M106 438q0 195 113 313.5t305 118.5q71 0 168 -22.5t158 -45.5l61 -22q-5 149 -88.5 284.5t-253.5 238.5l-243 -164l-41 55l217 147q-121 64 -273 109l27 63q177 -53 311 -129l209 142l41 -56l-182 -124q352 -229 352 -619q0 -278 -46 -441t-140.5 -233.5t-253.5 -70.5 q-206 0 -323.5 119t-117.5 337zM180 438q0 -187 95 -287t272 -100q136 0 213 59.5t114 201.5t39 397q-27 10 -70.5 25.5t-146.5 41t-168 25.5q-162 0 -255 -100t-93 -263z" />
<glyph unicode="&#xf1;" horiz-adv-x="1173" d="M207 0v1024h72v-82q7 4 20.5 11t54.5 24t81.5 30t96.5 24t105 11q71 0 122 -10t89 -34.5t61.5 -61t38 -96.5t20 -132t5.5 -176v-532h-72v528q0 111 -6 181t-21.5 126.5t-46 85t-76 42.5t-114.5 14q-51 0 -106.5 -10.5t-98.5 -25.5t-79 -30.5t-55 -26.5l-19 -10v-874h-72z M305 1368q11 11 29.5 27t63.5 42.5t75 26.5q43 0 156.5 -54t144.5 -54q16 0 48 21t56 42l23 21l19 -62q-10 -10 -26 -24.5t-56 -39t-68 -24.5q-43 0 -156.5 55.5t-144.5 55.5q-19 0 -55 -23t-62 -46l-26 -23z" />
<glyph unicode="&#xf2;" horiz-adv-x="1077" d="M123 535q0 191 42.5 301t132.5 158t245 48q212 0 311.5 -119t99.5 -393q0 -121 -10.5 -205t-37 -152.5t-73 -108.5t-118 -61t-172.5 -21q-129 0 -209.5 27.5t-128 96t-65 168.5t-17.5 261zM199 535q0 -70 2.5 -122t9 -102.5t18 -85t29.5 -66t43.5 -51t60.5 -34.5 t79.5 -21t101.5 -6q75 0 129.5 12.5t91.5 41t60 64.5t35 95.5t16 120t4 149.5q0 241 -81 344t-255 103q-134 0 -207 -39.5t-105 -133.5t-32 -269zM315 1436l33 63l393 -196l-30 -56z" />
<glyph unicode="&#xf3;" horiz-adv-x="1077" d="M123 535q0 191 42.5 301t132.5 158t245 48q212 0 311.5 -119t99.5 -393q0 -121 -10.5 -205t-37 -152.5t-73 -108.5t-118 -61t-172.5 -21q-129 0 -209.5 27.5t-128 96t-65 168.5t-17.5 261zM199 535q0 -70 2.5 -122t9 -102.5t18 -85t29.5 -66t43.5 -51t60.5 -34.5 t79.5 -21t101.5 -6q75 0 129.5 12.5t91.5 41t60 64.5t35 95.5t16 120t4 149.5q0 241 -81 344t-255 103q-134 0 -207 -39.5t-105 -133.5t-32 -269zM367 1303l393 196l33 -63l-396 -189z" />
<glyph unicode="&#xf4;" horiz-adv-x="1077" d="M123 535q0 191 42.5 301t132.5 158t245 48q212 0 311.5 -119t99.5 -393q0 -121 -10.5 -205t-37 -152.5t-73 -108.5t-118 -61t-172.5 -21q-129 0 -209.5 27.5t-128 96t-65 168.5t-17.5 261zM199 535q0 -70 2.5 -122t9 -102.5t18 -85t29.5 -66t43.5 -51t60.5 -34.5 t79.5 -21t101.5 -6q75 0 129.5 12.5t91.5 41t60 64.5t35 95.5t16 120t4 149.5q0 241 -81 344t-255 103q-134 0 -207 -39.5t-105 -133.5t-32 -269zM262 1229l248 270h57l250 -270h-88l-188 205l-191 -205h-88z" />
<glyph unicode="&#xf5;" horiz-adv-x="1077" d="M123 535q0 191 42.5 301t132.5 158t245 48q212 0 311.5 -119t99.5 -393q0 -121 -10.5 -205t-37 -152.5t-73 -108.5t-118 -61t-172.5 -21q-129 0 -209.5 27.5t-128 96t-65 168.5t-17.5 261zM199 535q0 -70 2.5 -122t9 -102.5t18 -85t29.5 -66t43.5 -51t60.5 -34.5 t79.5 -21t101.5 -6q75 0 129.5 12.5t91.5 41t60 64.5t35 95.5t16 120t4 149.5q0 241 -81 344t-255 103q-134 0 -207 -39.5t-105 -133.5t-32 -269zM233 1368q11 11 29.5 27t63.5 42.5t75 26.5q43 0 156.5 -54t144.5 -54q16 0 48 21t56 42l23 21l19 -62q-10 -10 -26 -24.5 t-56 -39t-68 -24.5q-43 0 -156.5 55.5t-144.5 55.5q-19 0 -55 -23t-62 -46l-26 -23z" />
<glyph unicode="&#xf6;" horiz-adv-x="1077" d="M123 535q0 191 42.5 301t132.5 158t245 48q212 0 311.5 -119t99.5 -393q0 -121 -10.5 -205t-37 -152.5t-73 -108.5t-118 -61t-172.5 -21q-129 0 -209.5 27.5t-128 96t-65 168.5t-17.5 261zM199 535q0 -70 2.5 -122t9 -102.5t18 -85t29.5 -66t43.5 -51t60.5 -34.5 t79.5 -21t101.5 -6q75 0 129.5 12.5t91.5 41t60 64.5t35 95.5t16 120t4 149.5q0 241 -81 344t-255 103q-134 0 -207 -39.5t-105 -133.5t-32 -269zM299 1307v127h72v-127h-72zM688 1307v127h72v-127h-72z" />
<glyph unicode="&#xf7;" d="M68 684v74h688v-74h-688zM371 285v164h82v-164h-82zM371 989v164h82v-164h-82z" />
<glyph unicode="&#xf8;" horiz-adv-x="1077" d="M123 535q0 191 42.5 301t132.5 158t245 48q97 0 170 -24l92 221l61 -22l-94 -226q93 -51 137.5 -163.5t44.5 -297.5q0 -121 -10.5 -205t-37 -152.5t-73 -108.5t-118 -61t-172.5 -21q-103 0 -176 18l-95 -233l-61 20l94 233q-104 49 -143 168t-39 347zM199 535 q0 -202 27 -304t110 -145l352 868q-67 23 -145 23q-134 0 -207 -39.5t-105 -133.5t-32 -269zM391 63q55 -16 152 -16q75 0 129.5 12.5t91.5 41t60 64.5t35 95.5t16 120t4 149.5q0 298 -134 394z" />
<glyph unicode="&#xf9;" horiz-adv-x="1140" d="M190 492v532h72v-528q0 -111 6 -181t21.5 -126.5t46 -85t76 -42.5t114.5 -14q51 0 104.5 10.5t93 25.5t72 30.5t49.5 26.5l17 10v874h72v-1024h-72v82q-7 -4 -18.5 -11t-48.5 -24t-75 -30t-91.5 -24t-102.5 -11q-71 0 -122 10t-89 34.5t-61.5 61t-38 96.5t-20 132 t-5.5 176zM303 1436l33 63l393 -196l-31 -56z" />
<glyph unicode="&#xfa;" horiz-adv-x="1140" d="M190 492v532h72v-528q0 -111 6 -181t21.5 -126.5t46 -85t76 -42.5t114.5 -14q51 0 104.5 10.5t93 25.5t72 30.5t49.5 26.5l17 10v874h72v-1024h-72v82q-7 -4 -18.5 -11t-48.5 -24t-75 -30t-91.5 -24t-102.5 -11q-71 0 -122 10t-89 34.5t-61.5 61t-38 96.5t-20 132 t-5.5 176zM391 1303l393 196l33 -63l-395 -189z" />
<glyph unicode="&#xfb;" horiz-adv-x="1140" d="M190 492v532h72v-528q0 -111 6 -181t21.5 -126.5t46 -85t76 -42.5t114.5 -14q51 0 104.5 10.5t93 25.5t72 30.5t49.5 26.5l17 10v874h72v-1024h-72v82q-7 -4 -18.5 -11t-48.5 -24t-75 -30t-91.5 -24t-102.5 -11q-71 0 -122 10t-89 34.5t-61.5 61t-38 96.5t-20 132 t-5.5 176zM287 1229l248 270h57l250 -270h-88l-189 205l-190 -205h-88z" />
<glyph unicode="&#xfc;" horiz-adv-x="1140" d="M190 492v532h72v-528q0 -111 6 -181t21.5 -126.5t46 -85t76 -42.5t114.5 -14q51 0 104.5 10.5t93 25.5t72 30.5t49.5 26.5l17 10v874h72v-1024h-72v82q-7 -4 -18.5 -11t-48.5 -24t-75 -30t-91.5 -24t-102.5 -11q-71 0 -122 10t-89 34.5t-61.5 61t-38 96.5t-20 132 t-5.5 176zM354 1307v127h72v-127h-72zM743 1307v127h72v-127h-72z" />
<glyph unicode="&#xfd;" horiz-adv-x="983" d="M61 1024h76l301 -958h84l303 958h76l-469 -1495h-76l148 471h-125zM332 1303l393 196l33 -63l-396 -189z" />
<glyph unicode="&#xfe;" horiz-adv-x="1101" d="M289 -471v1966h71v-534q19 9 52.5 22.5t126.5 36t174 22.5q84 0 143.5 -19.5t99.5 -57t63 -100.5t32.5 -141.5t9.5 -188.5q0 -100 -8 -174.5t-28.5 -139t-54.5 -107t-85.5 -73.5t-123.5 -45t-167 -14q-112 0 -234 12v-465h-71zM360 59q160 -12 232 -12q73 0 129.5 10 t98 28t70.5 49.5t48 68t29 89.5t14 108t4 130q0 123 -10.5 201t-40 136.5t-83.5 84t-138 25.5q-81 0 -169 -20.5t-136 -40.5l-48 -21v-836z" />
<glyph unicode="&#xff;" horiz-adv-x="983" d="M72 1024h75l302 -958h83l304 958h75l-469 -1495h-75l147 471h-125zM250 1307v127h72v-127h-72zM639 1307v127h72v-127h-72z" />
<glyph unicode="&#x152;" horiz-adv-x="1933" d="M123 707q0 148 15 259t52.5 206t99 154.5t157 92.5t225.5 33q207 0 321 -18h817v-74h-743v-586h621v-74h-621v-626h743v-76h-815q-172 -16 -323 -16q-131 0 -226.5 31t-157.5 87.5t-99 148.5t-51.5 201t-14.5 257zM201 711q0 -138 11 -235t41 -182t82.5 -135.5t136 -79 t200.5 -28.5q93 0 321 19v1288q-288 24 -321 24q-115 0 -198 -29.5t-135.5 -82.5t-83.5 -139t-42.5 -185t-11.5 -235z" />
<glyph unicode="&#x153;" horiz-adv-x="1794" d="M123 535q0 191 42.5 301t132.5 158t245 48q151 0 244 -58.5t133 -186.5q92 245 372 245q195 0 292 -116t97 -375v-68h-727q0 -222 70 -329t242 -107q64 0 157 4.5t154 9.5l61 5l4 -66q-228 -18 -378 -18q-140 0 -223 55.5t-123 163.5q-37 -115 -125 -167t-250 -52 q-129 0 -209.5 27.5t-128 96t-65 168.5t-17.5 261zM199 535q0 -70 2.5 -122t9 -102.5t18 -85t29.5 -66t43.5 -51t60.5 -34.5t79.5 -21t101.5 -6q75 0 129.5 12.5t91.5 41t60 64.5t35 95.5t16 120t4 149.5q0 241 -81 344t-255 103q-134 0 -207 -39.5t-105 -133.5t-32 -269z M954 549h652q0 230 -75.5 329t-238.5 99q-338 0 -338 -428z" />
<glyph unicode="&#x178;" horiz-adv-x="1105" d="M51 1434h84l420 -736l414 736h86l-463 -818v-616h-74v616zM305 1716v127h72v-127h-72zM707 1716v127h71v-127h-71z" />
<glyph unicode="&#x2c6;" horiz-adv-x="440" d="M-31 1229l248 270h57l250 -270h-88l-188 205l-191 -205h-88z" />
<glyph unicode="&#x2dc;" horiz-adv-x="440" d="M-72 1368q11 11 29.5 27t63.5 42.5t75 26.5q43 0 156.5 -54t144.5 -54q16 0 48 21t55 42l24 21l19 -62q-10 -10 -26 -24.5t-56 -39t-68 -24.5q-43 0 -156.5 55.5t-144.5 55.5q-19 0 -55 -23t-62 -46l-26 -23z" />
<glyph unicode="&#x2000;" horiz-adv-x="956" />
<glyph unicode="&#x2001;" horiz-adv-x="1913" />
<glyph unicode="&#x2002;" horiz-adv-x="956" />
<glyph unicode="&#x2003;" horiz-adv-x="1913" />
<glyph unicode="&#x2004;" horiz-adv-x="637" />
<glyph unicode="&#x2005;" horiz-adv-x="478" />
<glyph unicode="&#x2006;" horiz-adv-x="318" />
<glyph unicode="&#x2007;" horiz-adv-x="318" />
<glyph unicode="&#x2008;" horiz-adv-x="239" />
<glyph unicode="&#x2009;" horiz-adv-x="382" />
<glyph unicode="&#x200a;" horiz-adv-x="106" />
<glyph unicode="&#x2010;" horiz-adv-x="901" d="M123 541v69h655v-69h-655z" />
<glyph unicode="&#x2011;" horiz-adv-x="901" d="M123 541v69h655v-69h-655z" />
<glyph unicode="&#x2012;" horiz-adv-x="901" d="M123 541v69h655v-69h-655z" />
<glyph unicode="&#x2013;" horiz-adv-x="1024" d="M0 516v70h1024v-70h-1024z" />
<glyph unicode="&#x2014;" horiz-adv-x="2048" d="M0 516v70h2048v-70h-2048z" />
<glyph unicode="&#x2018;" horiz-adv-x="348" d="M74 1079l100 410h59l-81 -410h-78z" />
<glyph unicode="&#x2019;" horiz-adv-x="348" d="M113 1079l82 410h77l-100 -410h-59z" />
<glyph unicode="&#x201a;" horiz-adv-x="348" d="M92 -174l101 410h59l-82 -410h-78z" />
<glyph unicode="&#x201c;" horiz-adv-x="575" d="M31 1079l100 410h59l-81 -410h-78zM303 1079l100 410h60l-82 -410h-78z" />
<glyph unicode="&#x201d;" horiz-adv-x="598" d="M113 1079l82 410h77l-100 -410h-59zM408 1079l81 410h78l-100 -410h-59z" />
<glyph unicode="&#x201e;" horiz-adv-x="614" d="M113 -174l82 410h77l-100 -410h-59zM408 -174l81 410h78l-100 -410h-59z" />
<glyph unicode="&#x2022;" d="M287 225v594h512v-594h-512z" />
<glyph unicode="&#x2026;" horiz-adv-x="1523" d="M219 0v164h82v-164h-82zM739 0v164h82v-164h-82zM1260 0v164h81v-164h-81z" />
<glyph unicode="&#x202f;" horiz-adv-x="382" />
<glyph unicode="&#x2039;" horiz-adv-x="512" d="M47 479v74l342 264v-80l-276 -217l276 -239v-84z" />
<glyph unicode="&#x203a;" horiz-adv-x="512" d="M123 197v84l276 239l-276 217v80l342 -264v-74z" />
<glyph unicode="&#x205f;" horiz-adv-x="478" />
<glyph unicode="&#x20ac;" d="M10 502v69h127q-2 33 -2 107q0 86 2 127h-127v69h131q8 102 27 179t56 141.5t92 105.5t137.5 63.5t191.5 22.5q87 0 176.5 -9.5t136.5 -18.5l46 -10l-7 -72q-186 41 -352 41q-118 0 -198 -28t-127.5 -87.5t-70 -137t-30.5 -190.5l637 -2v-67h-641q-2 -41 -2 -127 q0 -74 2 -107l641 -2v-67h-639q8 -117 31 -196t70.5 -139t128 -88t198.5 -28q64 0 152 10.5t144 20.5l56 10l7 -69q-197 -41 -359 -41q-135 0 -228.5 32t-151 100.5t-86 161t-38.5 226.5h-131z" />
<glyph unicode="&#x2122;" d="M14 1208v64h410v-64h-170v-528h-68v528h-172zM496 678v594h102l172 -496l178 496h103v-594h-66v528l-180 -506h-72l-172 506v-528h-65z" />
<glyph unicode="&#xe000;" horiz-adv-x="1024" d="M0 0v1024h1024v-1024h-1024z" />
</font>
</defs>
</svg>
